+ Reply to Thread
Results 1 to 4 of 4
  1. #1
    Administrators Duckload.us's Avatar
    Join Date
    Dec 2010
    Posts
    104,396
    Thanks
    9
    Thanked 107,600 Times in 50,750 Posts

    Question (ฝรั่ง.ใหม่.พากย์ไทยมาสเตอร์)-Welcome to Marwen (2018) เวลคัม ทู มาร์เวิ่น-ได้รับแรงบันดาลใจจากเรื่องจริง-(Super HQ)-[1080p.mkv][Sound:Eng DTS 5.1/Thai AC3 5.1][SUB:Eng*ASS/SRT]



    *** Welcome to Marwen (2018) เวลคัม ทู มาร์เวิ่น ***

    •• สร้างจากแรงบันดาลใจจากเรื่องจริง จากสารคดี Marlencol ของ Jeff Malmberg ในปี 2010 •• :IMDb:6.1/ 10
    Welcome to Marwen (2018)
    PG-13 | 1h 56min | Biography, Comedy, Drama | 21 December 2018 (USA)
    Director: Robert Zemeckis
    Writers: Robert Zemeckis (screenplay by), Caroline Thompson (screenplay by)
    Stars: Steve Carell, Falk Hentschel, Matt O'Leary
    ••• Robert Zemeckis ผู้กำกับชื่อดังที่ฝากผลงานคุณภาพไว้มากมาย อาทิ Forrest Gump (1994), Back to the Future (1985)

    ••• ไฟล์ 1080p คุณภาพสูง! •••
    ••• บรรยาย:อังกฤษ SRT ! •••
    (ซับ SRT สามารถเปลี่ยนแปลงอักษรบรรยายได้ตามที่ต้องการ สี/ขนาด/ตำแหน่ง/ลักษณะ-และอี่นๆ ซึ่งซับโดยทั่วไปทำไม่ได้เช่นpgs-vob sub ที่มาจาก DVDหรือ Bluray)
    เสียงไทย From Master.


    ว่าด้วยเรื่องราวของ Mark Hogancamp ผู้ตกเป็นเหยื่อของการถูกทำร้ายร่างกายจนบาดเจ็บสาหั ส
    และความทรงจำบางส่วนเริ่มหายไป เขาจึงพบทางออกในการรักษาแบบใหม่ที่ไม่เหมือนใคร
    นั่นคือการสร้างหุ่นและเมืองจำลองซึ่งมันทำให้ชีวิตข องเขาดีขึ้น...!!!

    Code:
    Format                      : Matroska
    Format version              : Version 4
    File size                   : 4.39 GiB
    Duration                    : 1 h 55 min
    Overall bit rate            : 5 419 kb/s
    Movie name                  : Welcome.To.Marwen.2018.1080p.BluRay.x264 (Super HQ)
    
    Video
    ID                          : 1
    Format                      : AVC
    Format/Info                 : Advanced Video Codec
    Format profile              : [email protected]
    Format settings             : CABAC / 4 Ref Frames
    Format settings, CABAC      : Yes
    Format settings, Reference  : 4 frames
    Codec ID                    : V_MPEG4/ISO/AVC
    Duration                    : 1 h 55 min
    Bit rate                    : 1 130 kb/s
    Width                       : 1 920 pixels
    Height                      : 800 pixels
    Display aspect ratio        : 2.40:1
    Frame rate mode             : Constant
    Frame rate                  : 23.976 (24000/1001) FPS
    Color space                 : YUV
    Chroma subsampling          : 4:2:0
    Bit depth                   : 8 bits
    Scan type                   : Progressive
    Bits/(Pixel*Frame)          : 0.031
    Stream size                 : 937 MiB (21%)
    Writing library             : x264 core 155 r2901 7d0ff22
    Language                    : English
    Default                     : Yes
    Forced                      : No
    Color range                 : Limited
    Color primaries             : BT.709
    Transfer characteristics    : BT.709
    Matrix coefficients         : BT.709
    
    Audio #1
    ID                          : 2
    Format                      : AC-3
    Format/Info                 : Audio Coding 3
    Commercial name             : Dolby Digital
    Codec ID                    : A_AC3
    Duration                    : 1 h 55 min
    Bit rate mode               : Constant
    Bit rate                    : 640 kb/s
    Channel(s)                  : 6 channels
    Channel layout              : L R C LFE Ls Rs
    Sampling rate               : 44.1 kHz
    Frame rate                  : 28.711 FPS (1536 SPF)
    Bit depth                   : 16 bits
    Compression mode            : Lossy
    Delay relative to video     : -21 ms
    Stream size                 : 531 MiB (12%)
    Title                       : 5.1 AC3-Thai 640k 530m
    Language                    : Thai
    Service kind                : Complete Main
    Default                     : Yes
    Forced                      : No
    
    Audio #2
    ID                          : 3
    Format                      : DTS
    Format/Info                 : Digital Theater Systems
    Codec ID                    : A_DTS
    Duration                    : 1 h 55 min
    Bit rate mode               : Constant
    Bit rate                    : 3 646 kb/s
    Channel(s)                  : 6 channels
    Channel layout              : C L R Ls Rs LFE
    Sampling rate               : 44.1 kHz
    Frame rate                  : 43.066 FPS (1024 SPF)
    Bit depth                   : 16 bits
    Compression mode            : Lossy
    Delay relative to video     : -21 ms
    Stream size                 : 2.95 GiB (67%)
    Title                       : dts 5.1-Eng 44100-2.95g
    Language                    : English
    Default                     : No
    Forced                      : No
    
    Text #1
    ID                          : 4
    Format                      : UTF-8
    Codec ID                    : S_TEXT/UTF8
    Codec ID/Info               : UTF-8 Plain Text
    Duration                    : 1 h 46 min
    Bit rate                    : 53 b/s
    Count of elements           : 1464
    Stream size                 : 41.2 KiB (0%)
    Title                       : SRT
    Language                    : English
    Default                     : Yes
    Forced                      : No
    
    Text #2
    ID                          : 5
    Format                      : UTF-8
    Codec ID                    : S_TEXT/UTF8
    Codec ID/Info               : UTF-8 Plain Text
    Duration                    : 1 h 55 min
    Bit rate                    : 57 b/s
    Count of elements           : 1833
    Stream size                 : 48.6 KiB (0%)
    Title                       : SRT-Hearing Impaired=ผู้บกพร่องทางเสียง
    Language                    : English
    Default                     : No
    Forced                      : No
    
    Text #3
    ID                          : 6
    Format                      : ASS
    Codec ID                    : S_TEXT/ASS
    Codec ID/Info               : Advanced Sub Station Alpha
    Duration                    : 1 h 46 min
    Bit rate                    : 93 b/s
    Count of elements           : 1464
    Compression mode            : Lossless
    Stream size                 : 73.0 KiB (0%)
    Title                       : ASS
    Language                    : English
    Default                     : No
    Forced                      : No
    
    Text #4
    ID                          : 7
    Format                      : ASS
    Codec ID                    : S_TEXT/ASS
    Codec ID/Info               : Advanced Sub Station Alpha
    Duration                    : 1 h 55 min
    Bit rate                    : 104 b/s
    Count of elements           : 1833
    Compression mode            : Lossless
    Stream size                 : 88.9 KiB (0%)
    Title                       : ASS-Hearing Impaired=ผู้บกพร่องทางเสียง
    Language                    : English
    Default                     : No
    Forced                      : No





    Download: cornfile
    http://cornfile.com/xnsofaoe8hue
    Download: mekafile
    http://www.mekafile.com/dl.php?f=Xr5b01bVInZV

  2. The Following 6 Users Say Thank You to Duckload.us For This Useful Post:

    apichartdear (06-26-2019), bigbang06 (06-26-2019), noi54 (07-04-2019), smakha (06-26-2019), Tatum03 (06-27-2019), Wesker_TOT (06-26-2019)

  3. #2
    Senior Member
    Join Date
    Jun 2014
    Posts
    637
    Thanks
    0
    Thanked 0 Times in 0 Posts
    ขอบคุณครับ

  4. #3
    Senior Member
    Join Date
    Oct 2013
    Location
    Thailand
    Posts
    1,112
    Thanks
    988
    Thanked 0 Times in 0 Posts
    ขอบคุณมาก

  5. #4
    Senior Member
    Join Date
    Dec 2013
    Posts
    1,665
    Thanks
    3,621
    Thanked 0 Times in 0 Posts
    ขอบคุณมากครับ...

+ Reply to Thread

Thread Information

Users Browsing this Thread

There are currently 1 users browsing this thread. (0 members and 1 guests)

     

Posting Permissions

  • You may not post new threads
  • You may not post replies
  • You may not post attachments
  • You may not edit your posts