+ Reply to Thread
Results 1 to 2 of 2
  1. #1
    Administrators Duckload.us's Avatar
    Join Date
    Dec 2010
    Posts
    104,413
    Thanks
    9
    Thanked 107,652 Times in 50,771 Posts

    Question (ฝรั่ง.ใหม่ร้อนๆ.พากย์ไทยมาสเตอร์)-EUPHORIA [2017] เพิ่งผลิตออกจำหน่าย ยังไม่มีชื่อไทย[ Uncut (Super HQ)-[-BluRay 1080p][Sound:Eng/Thai AC3 5.1][SUB:Eng*SRT*]



    *** EUPHORIA [2017] ***

    -•• ไทยมาสเตอร์เพิ่งผลิตออกจำหน่าย ••-
    •• UnCut ยาวกว่าของไทยประมาณสามนาที •• :IMDb:5.8/ 10
    Euphoria (2017)
    R | 1h 44min | Adventure, Drama, Mystery | 2 February 2018 (Sweden)
    Director: Lisa Langseth
    Writer: Lisa Langseth
    Stars: Alicia Vikander, Eva Green, Charles Dance
    ••• ฉากที่ถูกตัดออกเสียงไทยจะกลายเป็นซาวน์แทร็ค รวมถึงฉากติดเรทที่ถูกตัดออก

    ••• ไฟล์ 1080p คุณภาพสูง! •••
    ••• บรรยาย:อังกฤษ SRT ! •••
    (ซับ SRT สามารถเปลี่ยนแปลงอักษรบรรยายได้ตามที่ต้องการ สี/ขนาด/ตำแหน่ง/ลักษณะ-และอี่นๆ ซึ่งซับโดยทั่วไปทำไม่ได้เช่นpgs-vob sub ที่มาจาก DVDหรือ Bluray)
    เสียงไทย From Master.


    เรื่องราวของสองพี่น้องที่เริ่มต้นการเดินทาง หลังจากแม่ซึ่งป่วยมานาน เสียชีวิตลง
    นางเอกแถวหน้า อลิเซีย วิแคนเดอร์ ขอเลื่อนขั้นไปนั่งแท่นผู้อำนวยการสร้างหนังเรื่อง Euphoria พร้อมพาหนังเรื่องนี้ไปเปิดตัวที่เทศกาลหนังซูริค ประเทศสวิตเซอร์แลนด์ นางเอก ลาร่า ครอฟท์ คนล่าสุด เผยว่า เธออยากมีส่วนร่วมกับวงการภาพยนตร์ในทุกด้าน ซึ่งทำให้เธอได้พบกับผู้กำกับหญิงเก่ง Lisa langseth (ลิซ่า แลงเซ็ท) เมื่อ 2 ปีก่อน ซึ่ง Lisa มีโปรเจ็คท์หนังที่ตั้งใจจะทำ และเธอก็สนใจ เพราะเป็นเรื่องราวความสัมพันธ์ในครอบครัว จึงตัดสินใจโดดมาทำให้หนังเรื่องนี้เป็นรูปเป็นร่างข ึ้นมา ไม่แค่นั่งเก้าอี้ผู้อำนวยการสร้าง แต่นักแสดงเจ้าของรางวัลออสการ์สมทบหญิงยอดเยี่ยม อลิเซีย ยังแสดงนำ ร่วมกับ เอวา กรีน Euphoria เตรียมไปฉายโชว์ที่เทศกาลหนังนานาชาติปูซาน เกาหลีใต้ กลางเดือนตุลาคมนี้ ก่อนเข้าฉายที่ประเทศสวีเดน ในวันที่ 2 กุมภาพันธ์ปีหน้า

    Code:
    Format                      : Matroska
    Format version              : Version 4
    File size                   : 4.02 GiB
    Duration                    : 1 h 37 min
    Overall bit rate            : 5 893 kb/s
    Movie name                  : Euphoria.2017.1080p.WEBRip.x264-(Super HQ)
    
    Video
    ID                          : 1
    Format                      : AVC
    Format/Info                 : Advanced Video Codec
    Format profile              : [email protected]
    Format settings             : 1 Ref Frames
    Format settings, CABAC      : No
    Format settings, Reference  : 1 frame
    Format settings, GOP        : M=1, N=12
    Codec ID                    : V_MPEG4/ISO/AVC
    Duration                    : 1 h 37 min
    Bit rate                    : 4 610 kb/s
    Width                       : 1 920 pixels
    Height                      : 1 080 pixels
    Display aspect ratio        : 16:9
    Frame rate mode             : Constant
    Frame rate                  : 29.970 (29970/1000) FPS
    Color space                 : YUV
    Chroma subsampling          : 4:2:0
    Bit depth                   : 8 bits
    Scan type                   : Progressive
    Bits/(Pixel*Frame)          : 0.074
    Stream size                 : 3.14 GiB (78%)
    Language                    : English
    Default                     : Yes
    Forced                      : No
    
    Audio #1
    ID                          : 2
    Format                      : AC-3
    Format/Info                 : Audio Coding 3
    Commercial name             : Dolby Digital
    Codec ID                    : A_AC3
    Duration                    : 1 h 37 min
    Bit rate mode               : Constant
    Bit rate                    : 640 kb/s
    Channel(s)                  : 6 channels
    Channel layout              : L R C LFE Ls Rs
    Sampling rate               : 44.1 kHz
    Frame rate                  : 28.711 FPS (1536 SPF)
    Bit depth                   : 16 bits
    Compression mode            : Lossy
    Stream size                 : 447 MiB (11%)
    Title                       : 5.1 AC3-Thai 640k 446m
    Language                    : Thai
    Service kind                : Complete Main
    Default                     : Yes
    Forced                      : No
    
    Audio #2
    ID                          : 3
    Format                      : AC-3
    Format/Info                 : Audio Coding 3
    Commercial name             : Dolby Digital
    Codec ID                    : A_AC3
    Duration                    : 1 h 37 min
    Bit rate mode               : Constant
    Bit rate                    : 640 kb/s
    Channel(s)                  : 6 channels
    Channel layout              : L R C LFE Ls Rs
    Sampling rate               : 44.1 kHz
    Frame rate                  : 28.711 FPS (1536 SPF)
    Bit depth                   : 16 bits
    Compression mode            : Lossy
    Stream size                 : 447 MiB (11%)
    Title                       : 5.1 AC3-Eng 640k 446m
    Language                    : English
    Service kind                : Complete Main
    Default                     : No
    Forced                      : No
    
    Text
    ID                          : 4
    Format                      : UTF-8
    Codec ID                    : S_TEXT/UTF8
    Codec ID/Info               : UTF-8 Plain Text
    Duration                    : 1 h 27 min
    Bit rate                    : 29 b/s
    Count of elements           : 580
    Stream size                 : 18.9 KiB (0%)
    Title                       : SRT
    Language                    : English
    Default                     : Yes
    Forced                      : No






    Download: cornfile
    http://cornfile.com/k40jsg5p50ka
    Download: mekafile
    http://www.mekafile.com/dl.php?f=xgd1d9bVIo6A

  2. The Following 3 Users Say Thank You to Duckload.us For This Useful Post:

    apichartdear (06-26-2019), noi54 (07-04-2019), smakha (06-26-2019)

  3. #2
    Senior Member
    Join Date
    Jun 2014
    Posts
    677
    Thanks
    0
    Thanked 0 Times in 0 Posts
    ขอบคุณครับ

+ Reply to Thread

Thread Information

Users Browsing this Thread

There are currently 1 users browsing this thread. (0 members and 1 guests)

     

Posting Permissions

  • You may not post new threads
  • You may not post replies
  • You may not post attachments
  • You may not edit your posts