+ Reply to Thread
Results 1 to 5 of 5
  1. #1
    Administrators Duckload.us's Avatar
    Join Date
    Dec 2010
    Posts
    105,453
    Thanks
    9
    Thanked 109,146 Times in 51,180 Posts

    Question (ญี่ปุ่น.ใหม่ร้อนๆ!.พากย์ไทยมาสเตอร์✩)-When I Get Home My Wife Always Pretends to Be Dead [2018] ผมล่ะเพลีย…เมียแกล้งตาย-(Super HQ)-[1080p.mkv][Sound:Eng/Thai AC3 5.1][HARD SUB:Eng/Thai]



    *** When I Get Home My Wife Always Pretends to Be Dead [2018] ผมล่ะเพลีย…เมียแกล้งตาย ***

    •• หนังรอมคอมญี่ปุ่นที่มีที่มาจากกระทู้ไวรัลของยูเซอร ์ที่ชื่อ K.Kajunsky ใน Yahoo! Answer ซึ่งกระทู้ตำนานนี้มีคนตามกว่า 4 ล้านคน •• :IMDb:6.5/ 10
    When I Get Home My Wife Always Pretends to Be Dead/Ie ni kaeru to tsuma ga kanarazu shinda furi o shite imasu. (2018)
    1h 55min | Comedy | 8 June 2018 (Japan)
    Director: Toshio Lee
    Writers: K. Kajunsky (manga), Ichida (manga)
    Stars: Nana Eikura, Ken Yasuda, Sumika Nono
    ••• จะเพี้ยนแค่ไหนถ้าหากคุณกลับมาถึงบ้านแล้วพบภรรยานอน ตายอยู่ทุกวัน

    ••• ไฟล์ 1080p คุณภาพสูง! •••
    ••• บรรยาย:อังกฤษ/ไทย ฝัง ! •••

    เสียงไทย From Master.

    ว่าด้วยเรื่องของคุณภรรยาสุดเพี้ยนที่ทำตัวแปลก ๆ คือแกล้งตายเวลาสามีกลับถึงบ้าน ก่อนที่จะมาทำเป็นการ์ตูน ต่อยอดมาไกลเป็นหนังโรงได้!


    Code:
    Format                      : Matroska
    Format version              : Version 4
    File size                   : 3.85 GiB
    Duration                    : 1 h 55 min
    Overall bit rate mode       : Constant
    Overall bit rate            : 4 778 kb/s
    Movie name                  : When I Get Home, My Wife Always Pretends to Be Dead (2018) -{Super HQ}
    
    Video
    ID                          : 1
    Format                      : AVC
    Format/Info                 : Advanced Video Codec
    Format profile              : [email protected]
    Format settings             : CABAC / 1 Ref Frames
    Format settings, CABAC      : Yes
    Format settings, Reference  : 1 frame
    Format settings, GOP        : M=1, N=25
    Codec ID                    : V_MPEG4/ISO/AVC
    Duration                    : 1 h 55 min
    Bit rate mode               : Constant
    Bit rate                    : 3 500 kb/s
    Width                       : 1 920 pixels
    Height                      : 1 080 pixels
    Display aspect ratio        : 16:9
    Frame rate mode             : Constant
    Frame rate                  : 29.970 (30000/1001) FPS
    Color space                 : YUV
    Chroma subsampling          : 4:2:0
    Bit depth                   : 8 bits
    Scan type                   : Progressive
    Bits/(Pixel*Frame)          : 0.056
    Stream size                 : 2.82 GiB (73%)
    Language                    : Japanese
    Default                     : Yes
    Forced                      : No
    
    Audio #1
    ID                          : 2
    Format                      : AC-3
    Format/Info                 : Audio Coding 3
    Commercial name             : Dolby Digital
    Codec ID                    : A_AC3
    Duration                    : 1 h 55 min
    Bit rate mode               : Constant
    Bit rate                    : 640 kb/s
    Channel(s)                  : 6 channels
    Channel layout              : L R C LFE Ls Rs
    Sampling rate               : 44.1 kHz
    Frame rate                  : 28.711 FPS (1536 SPF)
    Bit depth                   : 16 bits
    Compression mode            : Lossy
    Stream size                 : 528 MiB (13%)
    Title                       : 5.1 AC3-Thai 640k 527m
    Language                    : Thai
    Service kind                : Complete Main
    Default                     : Yes
    Forced                      : No
    
    Audio #2
    ID                          : 3
    Format                      : AC-3
    Format/Info                 : Audio Coding 3
    Commercial name             : Dolby Digital
    Codec ID                    : A_AC3
    Duration                    : 1 h 55 min
    Bit rate mode               : Constant
    Bit rate                    : 640 kb/s
    Channel(s)                  : 6 channels
    Channel layout              : L R C LFE Ls Rs
    Sampling rate               : 44.1 kHz
    Frame rate                  : 28.711 FPS (1536 SPF)
    Bit depth                   : 16 bits
    Compression mode            : Lossy
    Stream size                 : 528 MiB (13%)
    Title                       : 5.1 AC3-Jpn 640k 527m
    Language                    : Japanese
    Service kind                : Complete Main
    Default                     : No
    Forced                      : No






    Download: cornfile
    http://cornfile.com/dpe67grtqsne
    Download: mekafile
    http://www.mekafile.com/dl.php?f=oB6363bVIsmr

  2. The Following 6 Users Say Thank You to Duckload.us For This Useful Post:

    apichartdear (06-26-2019), gaszolineskywalker (07-15-2019), noi54 (07-04-2019), Tatum03 (07-20-2019), Tellmon (06-26-2019), Wesker_TOT (06-26-2019)

  3. #2
    Senior Member
    Join Date
    Jun 2014
    Posts
    762
    Thanks
    0
    Thanked 0 Times in 0 Posts
    ขอบคุณครับ

  4. #3
    Senior Member
    Join Date
    Dec 2013
    Posts
    1,725
    Thanks
    3,682
    Thanked 0 Times in 0 Posts
    ขอบคุณมากครับ...

  5. #4
    Senior Member
    Join Date
    Oct 2012
    Posts
    658
    Thanks
    1,600
    Thanked 0 Times in 0 Posts
    ขอบคุณครับ

  6. #5
    Senior Member
    Join Date
    Oct 2013
    Location
    Thailand
    Posts
    1,134
    Thanks
    1,010
    Thanked 0 Times in 0 Posts
    ขอบคุณมาก

+ Reply to Thread

Thread Information

Users Browsing this Thread

There are currently 1 users browsing this thread. (0 members and 1 guests)

     

Posting Permissions

  • You may not post new threads
  • You may not post replies
  • You may not post attachments
  • You may not edit your posts