+ Reply to Thread
Results 1 to 4 of 4
  1. #1
    Administrators Duckload.us's Avatar
    Join Date
    Dec 2010
    Posts
    104,270
    Thanks
    9
    Thanked 107,486 Times in 50,715 Posts

    Question (ฝรั่ง.ใหม่ร้อน.พากย์ไทยมาสเตอร์)-SLEEPWALKER [2017] เพิ่งผลิตออกจำหน่าย ยังไม่มีชื่อไทยครับ (Super HQ)-[-☼720p.mkv][Sound:Eng/Thai AC3 5.1][SUB:Eng*SRT*]



    *** SLEEPWALKER [2017] ***

    Sleepwalker (2017)
    1h 28min | Thriller | 10 October 2017 (USA)
    Director: Elliott Lester
    Writers: Jack Olsen (screenplay), Jack Olsen
    Stars: Richard Armitage, Jake Broder, Matthew Del Negro

    ••• ไฟล์ 720p คุณภาพสูง! •••
    ••• บรรยาย:อังกฤษ SRT ! •••
    (ซับ SRT สามารถเปลี่ยนแปลงอักษรบรรยายได้ตามที่ต้องการ สี/ขนาด/ตำแหน่ง/ลักษณะ-และอี่นๆ ซึ่งซับโดยทั่วไปทำไม่ได้เช่นpgs-vob sub ที่มาจาก DVDหรือ Bluray)
    เสียงไทย From Master.


    Troubled by bouts of sleepwalking and disturbing nightmares, graduate student Sarah Foster goes to her university sleep research center for help. But when she wakes up after her first night of being monitored, the world she lives in seems to have changed in subtle, Twilight-Zone-esque ways.
    ซาราห์ฟอสเตอร์นักศึกษาบัณฑิตที่มีปัญหารบกวนจากฝันร ้ายและการเดินละเมอ เธอไปที่ศูนย์วิจัยการนอนหลับของมหาวิทยาลัยเพื่อขอค วามช่วยเหลือ แต่เมื่อเธอตื่นขึ้นมาหลังจากที่ถูกจับตามองด้วยกล้อ งติดตามพฤติกรรมขณะหลับ ในคืนแรกโลกของเธอที่เธออาศัยอยู่ดูเหมือนจะเปลี่ยนไ ป


    Code:
    Format                      : Matroska
    Format version              : Version 4
    File size                   : 3.39 GiB
    Duration                    : 1 h 27 min
    Overall bit rate            : 5 519 kb/s
    Movie name                  : Sleepwalker.2017.HDRip.720p.x264-[Super HQ]
    
    Video
    ID                          : 1
    Format                      : AVC
    Format/Info                 : Advanced Video Codec
    Format profile              : [email protected]
    Format settings             : CABAC / 1 Ref Frames
    Format settings, CABAC      : Yes
    Format settings, Reference  : 1 frame
    Format settings, GOP        : M=1, N=25
    Codec ID                    : V_MPEG4/ISO/AVC
    Duration                    : 1 h 27 min
    Bit rate mode               : Constant
    Bit rate                    : 4 240 kb/s
    Width                       : 1 280 pixels
    Height                      : 490 pixels
    Display aspect ratio        : 2.612
    Frame rate mode             : Constant
    Frame rate                  : 29.970 (30000/1001) FPS
    Color space                 : YUV
    Chroma subsampling          : 4:2:0
    Bit depth                   : 8 bits
    Scan type                   : Progressive
    Bits/(Pixel*Frame)          : 0.226
    Stream size                 : 2.60 GiB (77%)
    Language                    : English
    Default                     : Yes
    Forced                      : No
    
    Audio #1
    ID                          : 2
    Format                      : AC-3
    Format/Info                 : Audio Coding 3
    Commercial name             : Dolby Digital
    Codec ID                    : A_AC3
    Duration                    : 1 h 27 min
    Bit rate mode               : Constant
    Bit rate                    : 640 kb/s
    Channel(s)                  : 6 channels
    Channel layout              : L R C LFE Ls Rs
    Sampling rate               : 44.1 kHz
    Frame rate                  : 28.711 FPS (1536 SPF)
    Bit depth                   : 16 bits
    Compression mode            : Lossy
    Stream size                 : 402 MiB (12%)
    Title                       : 5.1 AC3-Thai 640k 402m
    Language                    : Thai
    Service kind                : Complete Main
    Default                     : Yes
    Forced                      : No
    
    Audio #2
    ID                          : 3
    Format                      : AC-3
    Format/Info                 : Audio Coding 3
    Commercial name             : Dolby Digital
    Codec ID                    : A_AC3
    Duration                    : 1 h 27 min
    Bit rate mode               : Constant
    Bit rate                    : 640 kb/s
    Channel(s)                  : 6 channels
    Channel layout              : L R C LFE Ls Rs
    Sampling rate               : 44.1 kHz
    Frame rate                  : 28.711 FPS (1536 SPF)
    Bit depth                   : 16 bits
    Compression mode            : Lossy
    Stream size                 : 402 MiB (12%)
    Title                       : 5.1 AC3-ENG 640k 402m
    Language                    : English
    Service kind                : Complete Main
    Default                     : No
    Forced                      : No
    
    Text #1
    ID                          : 4
    Format                      : UTF-8
    Codec ID                    : S_TEXT/UTF8
    Codec ID/Info               : UTF-8 Plain Text
    Duration                    : 1 h 22 min
    Bit rate                    : 47 b/s
    Count of elements           : 952
    Stream size                 : 28.6 KiB (0%)
    Title                       : SRT
    Language                    : English
    Default                     : Yes
    Forced                      : No
    
    Text #2
    ID                          : 5
    Format                      : UTF-8
    Codec ID                    : S_TEXT/UTF8
    Codec ID/Info               : UTF-8 Plain Text
    Duration                    : 1 h 27 min
    Bit rate                    : 49 b/s
    Count of elements           : 1112
    Stream size                 : 31.5 KiB (0%)
    Title                       : SRT--Hearing Impaired=ผู้บกพร่องทางเสียง
    Language                    : English
    Default                     : No
    Forced                      : No





    Download: cornfile
    http://cornfile.com/4fp2l1923gzb
    Download: mekafile
    http://www.mekafile.com/dl.php?f=p002c6bVKdWX

  2. The Following 4 Users Say Thank You to Duckload.us For This Useful Post:

    amorn wichian (06-27-2019), apichartdear (06-26-2019), sawara (06-28-2019), smakha (06-26-2019)

  3. #2
    Senior Member
    Join Date
    Dec 2013
    Posts
    256
    Thanks
    176
    Thanked 0 Times in 0 Posts
    ขอบคุณครับ

  4. #3
    Senior Member
    Join Date
    Jun 2014
    Posts
    637
    Thanks
    0
    Thanked 0 Times in 0 Posts
    ขอบคุณครับ

  5. #4
    Senior Member
    Join Date
    Jul 2012
    Posts
    6,039
    Thanks
    0
    Thanked 0 Times in 0 Posts
    ขอบคุณมากจ้า

+ Reply to Thread

Thread Information

Users Browsing this Thread

There are currently 1 users browsing this thread. (0 members and 1 guests)

     

Posting Permissions

  • You may not post new threads
  • You may not post replies
  • You may not post attachments
  • You may not edit your posts