+ Reply to Thread
Results 1 to 2 of 2
  1. #1
    Administrators Duckload.us's Avatar
    Join Date
    Dec 2010
    Posts
    104,270
    Thanks
    9
    Thanked 107,486 Times in 50,715 Posts

    Question [ฝรั่ง]-[**ใหม่ ! MINI HD 1080P**] • The Professor (2019) [1080p.AMZN.WEB-DL.DDP5.1.H.264] • [เสียงอังกฤษ 5.1] • [บรรยายไทย(แปล)โดย jirathip ดีกว่านี้ก็มาสเตอร์แล้วครับ + อังกฤษ + ซับไทย PGS คมชัด ]




    โดย The Professor นั้นเป็นผลงานการกำกับและเขียนบทเรื่องที่สองของผู้ก ำกับหน้าใหม่ เวย์น โรเบิร์ตส (Wayne Roberts) ซึ่งว่าด้วยเรื่องราวของอาจารย์ที่สอนในระดับมหาวิทย าลัยที่พบว่าตัวเองกำลังจะจากโลกนี้ไปด้วยโรคร้ายและ จะมีชีวิตอยู่อีกแค่ 6 เดือน เขาจึงเริ่มใช้ชีวิตแบบสุดติ่งทำทุกอย่างที่อยากทำก่ อนตาย


    Code:
    Format                                   : Matroska
    Format version                           : Version 4
    File size                                : 6.53 GiB
    Duration                                 : 1 h 31 min
    Overall bit rate                         : 10.2 Mb/s
    Movie name                               : [email protected]
    
    Video
    ID                                       : 1
    Format                                   : AVC
    Format/Info                              : Advanced Video Codec
    Format profile                           : [email protected]
    Format settings                          : CABAC / 4 Ref Frames
    Format settings, CABAC                   : Yes
    Format settings, RefFrames               : 4 frames
    Codec ID                                 : V_MPEG4/ISO/AVC
    Duration                                 : 1 h 31 min
    Bit rate mode                            : Constant
    Bit rate                                 : 9 448 kb/s
    Nominal bit rate                         : 10 000 kb/s
    Width                                    : 1 920 pixels
    Height                                   : 1 040 pixels
    Display aspect ratio                     : 1.85:1
    Frame rate mode                          : Constant
    Frame rate                               : 23.976 (24000/1001) FPS
    Color space                              : YUV
    Chroma subsampling                       : 4:2:0
    Bit depth                                : 8 bits
    Scan type                                : Progressive
    Bits/(Pixel*Frame)                       : 0.197
    Stream size                              : 6.05 GiB (93%)
    Title                                    : [email protected]
    Default                                  : Yes
    Forced                                   : No
    Color range                              : Limited
    Color primaries                          : BT.709
    Transfer characteristics                 : BT.709
    Matrix coefficients                      : BT.709
    
    Audio
    ID                                       : 2
    Format                                   : E-AC-3
    Format/Info                              : Enhanced AC-3
    Commercial name                          : Dolby Digital Plus
    Codec ID                                 : A_EAC3
    Duration                                 : 1 h 31 min
    Bit rate mode                            : Constant
    Bit rate                                 : 640 kb/s
    Channel(s)                               : 6 channels
    Channel layout                           : L R C LFE Ls Rs
    Sampling rate                            : 48.0 kHz
    Frame rate                               : 31.250 FPS (1536 SPF)
    Compression mode                         : Lossy
    Stream size                              : 419 MiB (6%)
    Title                                    : English 5.1
    Language                                 : English
    Service kind                             : Complete Main
    Default                                  : Yes
    Forced                                   : No
    
    Text #1
    ID                                       : 3
    Format                                   : UTF-8
    Codec ID                                 : S_TEXT/UTF8
    Codec ID/Info                            : UTF-8 Plain Text
    Duration                                 : 1 h 27 min
    Bit rate                                 : 62 b/s
    Count of elements                        : 1447
    Stream size                              : 40.1 KiB (0%)
    Title                                    : English
    Language                                 : English
    Default                                  : No
    Forced                                   : No
    
    Text #2
    ID                                       : 4
    Format                                   : UTF-8
    Codec ID                                 : S_TEXT/UTF8
    Codec ID/Info                            : UTF-8 Plain Text
    Duration                                 : 1 h 28 min
    Bit rate                                 : 68 b/s
    Count of elements                        : 1586
    Stream size                              : 44.2 KiB (0%)
    Title                                    : English SDH
    Language                                 : English
    Default                                  : No
    Forced                                   : No
    
    Text #3
    ID                                       : 5
    Format                                   : VobSub
    Muxing mode                              : zlib
    Codec ID                                 : S_VOBSUB
    Codec ID/Info                            : Picture based subtitle format used on DVDs
    Duration                                 : 1 h 26 min
    Bit rate                                 : 2 144 b/s
    Count of elements                        : 1372
    Stream size                              : 1.32 MiB (0%)
    Title                                    : Thai 480P
    Language                                 : Thai
    Default                                  : No
    Forced                                   : No
    
    Text #4
    ID                                       : 6
    Format                                   : VobSub
    Muxing mode                              : zlib
    Codec ID                                 : S_VOBSUB
    Codec ID/Info                            : Picture based subtitle format used on DVDs
    Duration                                 : 1 h 26 min
    Bit rate                                 : 3 792 b/s
    Count of elements                        : 1372
    Stream size                              : 2.33 MiB (0%)
    Title                                    : Thai 720P
    Language                                 : Thai
    Default                                  : No
    Forced                                   : No
    
    Text #5
    ID                                       : 7
    Format                                   : VobSub
    Muxing mode                              : zlib
    Codec ID                                 : S_VOBSUB
    Codec ID/Info                            : Picture based subtitle format used on DVDs
    Duration                                 : 1 h 26 min
    Bit rate                                 : 6 179 b/s
    Count of elements                        : 1372
    Stream size                              : 3.80 MiB (0%)
    Title                                    : Thai 1080P
    Language                                 : Thai
    Default                                  : No
    Forced                                   : No
    
    Text #6
    ID                                       : 8
    Format                                   : VobSub
    Muxing mode                              : zlib
    Codec ID                                 : S_VOBSUB
    Codec ID/Info                            : Picture based subtitle format used on DVDs
    Duration                                 : 1 h 26 min
    Bit rate                                 : 7 045 b/s
    Count of elements                        : 1372
    Stream size                              : 4.34 MiB (0%)
    Title                                    : Thai 1080P_BIG
    Language                                 : Thai
    Default                                  : No
    Forced                                   : No
    
    Text #7
    ID                                       : 9
    Format                                   : VobSub
    Muxing mode                              : zlib
    Codec ID                                 : S_VOBSUB
    Codec ID/Info                            : Picture based subtitle format used on DVDs
    Duration                                 : 1 h 26 min
    Bit rate                                 : 6 178 b/s
    Count of elements                        : 1372
    Stream size                              : 3.80 MiB (0%)
    Title                                    : Thai 1080P_OUT
    Language                                 : Thai
    Default                                  : No
    Forced                                   : No
    
    Text #8
    ID                                       : 10
    Format                                   : VobSub
    Muxing mode                              : zlib
    Codec ID                                 : S_VOBSUB
    Codec ID/Info                            : Picture based subtitle format used on DVDs
    Duration                                 : 1 h 26 min
    Bit rate                                 : 7 045 b/s
    Count of elements                        : 1372
    Stream size                              : 4.34 MiB (0%)
    Title                                    : Thai 1080P_BIG[OUT]
    Language                                 : Thai
    Default                                  : No
    Forced                                   : No
    
    Text #9
    ID                                       : 11
    Format                                   : VobSub
    Muxing mode                              : zlib
    Codec ID                                 : S_VOBSUB
    Codec ID/Info                            : Picture based subtitle format used on DVDs
    Duration                                 : 1 h 26 min
    Bit rate                                 : 6 193 b/s
    Count of elements                        : 1372
    Stream size                              : 3.81 MiB (0%)
    Title                                    : Thai 1080P_Yellow
    Language                                 : Thai
    Default                                  : No
    Forced                                   : No
    
    Text #10
    ID                                       : 12
    Format                                   : PGS
    Muxing mode                              : zlib
    Codec ID                                 : S_HDMV/PGS
    Codec ID/Info                            : Picture based subtitle format used on BDs/HD-DVDs
    Duration                                 : 1 h 26 min
    Bit rate                                 : 21.3 kb/s
    Count of elements                        : 2744
    Stream size                              : 13.1 MiB (0%)
    Title                                    : Thai PGS
    Language                                 : Thai
    Default                                  : Yes
    Forced                                   : No
    
    Text #11
    ID                                       : 13
    Format                                   : PGS
    Muxing mode                              : zlib
    Codec ID                                 : S_HDMV/PGS
    Codec ID/Info                            : Picture based subtitle format used on BDs/HD-DVDs
    Duration                                 : 1 h 26 min
    Bit rate                                 : 24.5 kb/s
    Count of elements                        : 2744
    Stream size                              : 15.1 MiB (0%)
    Title                                    : Thai PGS_BIG
    Language                                 : Thai
    Default                                  : No
    Forced                                   : No
    
    Text #12
    ID                                       : 14
    Format                                   : PGS
    Muxing mode                              : zlib
    Codec ID                                 : S_HDMV/PGS
    Codec ID/Info                            : Picture based subtitle format used on BDs/HD-DVDs
    Duration                                 : 1 h 26 min
    Bit rate                                 : 21.3 kb/s
    Count of elements                        : 2744
    Stream size                              : 13.1 MiB (0%)
    Title                                    : Thai PGS_OUT
    Language                                 : Thai
    Default                                  : No
    Forced                                   : No
    
    Text #13
    ID                                       : 15
    Format                                   : PGS
    Muxing mode                              : zlib
    Codec ID                                 : S_HDMV/PGS
    Codec ID/Info                            : Picture based subtitle format used on BDs/HD-DVDs
    Duration                                 : 1 h 26 min
    Bit rate                                 : 21.4 kb/s
    Count of elements                        : 2744
    Stream size                              : 13.2 MiB (0%)
    Title                                    : Thai PGS_Yellow
    Language                                 : Thai
    Default                                  : No
     Forced                                   : No























    Download: cornfile
    http://cornfile.com/e3b89sjceqrs
    Download: mekafile
    http://www.mekafile.com/dl.php?f=Jcbc1ebVKeD4

  2. The Following 2 Users Say Thank You to Duckload.us For This Useful Post:

    noi54 (07-04-2019), Tatum03 (06-27-2019)

  3. #2
    Senior Member
    Join Date
    Oct 2013
    Location
    Thailand
    Posts
    1,110
    Thanks
    986
    Thanked 0 Times in 0 Posts
    ขอบคุณมาก

+ Reply to Thread

Thread Information

Users Browsing this Thread

There are currently 1 users browsing this thread. (0 members and 1 guests)

     

Posting Permissions

  • You may not post new threads
  • You may not post replies
  • You may not post attachments
  • You may not edit your posts