+ Reply to Thread
Results 1 to 1 of 1
  1. #1
    Administrators Duckload.us's Avatar
    Join Date
    Dec 2010
    Posts
    104,359
    Thanks
    9
    Thanked 107,569 Times in 50,736 Posts

    Lightbulb [จีน]-[* MKV*] Flipped (2018) : เมื่อรักหมุนรอบตัวเรา [EP.1-24 Complete] [เสียงพากย์จีน] [บรรยายไทย] [ซับไทย Master From WeTV + ซับ PGS คมชัด]-WEB-DL.H.264.1080p. [Soundtrack บรรยายไทย]



    เมื่อรักหมุนรอบตัวเรา

    นักแสดง: เกาหานอวี๋ เฉินอวี้หมี่ หลินเหยียนโหรว ซุนเค่อเจี๋ย กู่หลานตี้

    เนื่องจากว่ามีพลังวิเศษ สามารถรับรู้ได้เร็วกกว่ามนุษย์ทั่วๆไป ทุกครั้งที่ ฉีซวิน “ผู้มีพลังวิเศษ”ใช้พลังวิเศษนี้เขาจะมีอาการปวดหัวอ ย่างทรมานมาก โชคชะตาได้ลิขิตให้เขามาพบกับ เฟิงซวงซวง ผู้เยียวยา อันที่จริงแล้วฉีซวินแค่อยากจะสืบหาสถานะที่แท้จริงข องเฟิงซวงซวงก็แค่นั้น แต่เมื่อยิ่งเข้าใกล้เฟิงซวงซวงมากเท่าไร ก็ยิ่งหลงเฟิงซวงซวงเข้าโดยที่ไม่ทันตั้งตัว แต่ขณะเดียวกันความรักครั้งนี้ก้ดันไปเกี่ยวข้องกับค นรอบข้างรวมถึงความลับของตระกูลในรุ่นก่อนๆ การพัวพันกับความแค้น ความรักและความเกลียดชัง สุดท้ายนั้นฉีซวินและเฟิงเซวียนเซวียนจะตัดสินใจยังไ งกับเรื่องนี้...


    Format : Matroska
    Format version : Version 4
    File size : 852 MiB
    Duration : 37 min 31 s
    Overall bit rate : 3 173 kb/s
    Movie name : Flipped.S01E10.1080p.WEB-DL.AC3.x264_by SkiesIT
    Encoded date : UTC 2019-06-24 07:54:08
    Writing application : mkvmerge v35.0.0 ('All The Love In The World') 64-bit
    Writing library : libebml v1.3.9 + libmatroska v1.5.2

    Video
    ID : 1
    Format : AVC
    Format/Info : Advanced Video Codec
    Format profile : [email protected]
    Format settings : CABAC / 4 Ref Frames
    Format settings, CABAC : Yes
    Format settings, Reference frames : 4 frames
    Codec ID : V_MPEG4/ISO/AVC
    Duration : 37 min 31 s
    Bit rate : 2 689 kb/s
    Width : 1 920 pixels
    Height : 1 080 pixels
    Display aspect ratio : 16:9
    Frame rate mode : Constant
    Frame rate : 25.000 FPS
    Color space : YUV
    Chroma subsampling : 4:2:0
    Bit depth : 8 bits
    Scan type : Progressive
    Bits/(Pixel*Frame) : 0.052
    Stream size : 722 MiB (85%)
    Title : Flipped.S01E10.1080p.WEB-DL.AC3.x264_by SkiesIT
    Language : Chinese
    Default : Yes
    Forced : No
    Color range : Limited
    Color primaries : BT.709
    Transfer characteristics : BT.709
    Matrix coefficients : BT.709

    Audio
    ID : 2
    Format : AC-3
    Format/Info : Audio Coding 3
    Commercial name : Dolby Digital
    Codec ID : A_AC3
    Duration : 37 min 31 s
    Bit rate mode : Constant
    Bit rate : 448 kb/s
    Channel(s) : 6 channels
    Channel layout : L R C LFE Ls Rs
    Sampling rate : 48.0 kHz
    Frame rate : 31.250 FPS (1536 SPF)
    Bit depth : 16 bits
    Compression mode : Lossy
    Stream size : 120 MiB (14%)
    Language : Chinese
    Service kind : Complete Main
    Default : Yes
    Forced : No

    Text #1
    ID : 3
    Format : UTF-8
    Codec ID : S_TEXT/UTF8
    Codec ID/Info : UTF-8 Plain Text
    Duration : 32 min 6 s
    Bit rate : 97 b/s
    Count of elements : 466
    Stream size : 23.0 KiB (0%)
    Title : Thai SRT
    Language : Thai
    Default : Yes
    Forced : No

    Text #2
    ID : 4
    Format : PGS
    Muxing mode : zlib
    Codec ID : S_HDMV/PGS
    Codec ID/Info : Picture based subtitle format used on BDs/HD-DVDs
    Duration : 32 min 6 s
    Bit rate : 25.4 kb/s
    Count of elements : 932
    Stream size : 5.84 MiB (1%)
    Title : Thai PGS Angsana Yellow
    Language : Thai
    Default : No
    Forced : No

    Text #3
    ID : 5
    Format : PGS
    Muxing mode : zlib
    Codec ID : S_HDMV/PGS
    Codec ID/Info : Picture based subtitle format used on BDs/HD-DVDs
    Duration : 32 min 6 s
    Bit rate : 25.4 kb/s
    Count of elements : 932
    Stream size : 5.84 MiB (1%)
    Title : Thai PGS Angsana
    Language : Thai
    Default : No
    Forced : No

    Text #4
    ID : 6
    Format : PGS
    Muxing mode : zlib
    Codec ID : S_HDMV/PGS
    Codec ID/Info : Picture based subtitle format used on BDs/HD-DVDs
    Duration : 32 min 6 s
    Bit rate : 24.1 kb/s
    Count of elements : 932
    Stream size : 5.53 MiB (1%)
    Title : Thai PGS Tahoma
    Language : Thai
    Default : No
    Forced : No











    15.68 GB
    http://www.filecondo.com/dl.php?f=q3bd431HG47P

  2. The Following User Says Thank You to Duckload.us For This Useful Post:

    poona14 (06-30-2019)

+ Reply to Thread

Thread Information

Users Browsing this Thread

There are currently 1 users browsing this thread. (0 members and 1 guests)

     

Posting Permissions

  • You may not post new threads
  • You may not post replies
  • You may not post attachments
  • You may not edit your posts