+ Reply to Thread
Results 1 to 2 of 2
  1. #1
    Administrators Duckload.us's Avatar
    Join Date
    Dec 2010
    Posts
    105,453
    Thanks
    9
    Thanked 109,146 Times in 51,180 Posts

    Lightbulb []-kakegurui (⤵¹ç¹ѹ) S1-S2 [Netflix-DL] Ѻա-WEB-DL.H.264.1080p. [rip from Master]-[Soundtrack ]



    Kakegurui



    Rating: 7.2/10 Year: 2017 Genres: Animation / Drama / Mystery / Thriller Runtime: 24 min Language: Japanese Director: n/A Writers: Christian La Monte / Rachel Robinson / Homura Kawamoto Cast: Saori Hayami / Franciska Friede / Tatsuya TokutakePlot:

    Hyakkaou Private Academy. An institution for the privileged with a very peculiar curriculum. You see, when you're the sons and daughters of the wealthiest of the wealthy, it's not athletic prowess or book smarts that keep you ahead. It's reading your opponent, the art of the deal. What better way to hone those skills than with a rigorous curriculum of gambling? At Hyakkaou Private Academy, the winners live like kings, and the losers are put through the wringer, but when Yumeko Jabami enrolls, she's gonna teach these kids what a high roller really looks like. Written by Greenster2


    Code:
    General
    Unique ID                   : 253047490093861293607730770234090346400 (0xBE5F2C8196EE632A901A6C74EF9E57A0)
    Complete name               : [Netflix-DL] Kakegurui S01E01 [1080p].mkv
    Format                      : Matroska
    Format version              : Version 4
    File size                   : 1.03 GiB
    Duration                    : 24 min 22 s
    Overall bit rate mode       : Variable
    Overall bit rate            : 6 029 kb/s
    Encoded date                : UTC 2018-01-26 18:31:22
    Writing application         : mkvmerge v16.0.0 ('Protest') 32-bit
    Writing library             : libebml v1.3.5 + libmatroska v1.4.8
    
    Video
    ID                          : 1
    Format                      : AVC
    Format/Info                 : Advanced Video Codec
    Format profile              : [email protected]
    Format settings             : CABAC / 3 Ref Frames
    Format settings, CABAC      : Yes
    Format settings, ReFrames   : 3 frames
    Codec ID                    : V_MPEG4/ISO/AVC
    Duration                    : 24 min 22 s
    Bit rate mode               : Variable
    Bit rate                    : 4 870 kb/s
    Maximum bit rate            : 7 305 kb/s
    Width                       : 1 920 pixels
    Height                      : 1 080 pixels
    Display aspect ratio        : 16:9
    Frame rate mode             : Constant
    Frame rate                  : 23.976 (24000/1001) FPS
    Color space                 : YUV
    Chroma subsampling          : 4:2:0
    Bit depth                   : 8 bits
    Scan type                   : Progressive
    Bits/(Pixel*Frame)          : 0.098
    Stream size                 : 849 MiB (81%)
    Writing library             : x264 core 118
    Encoding settings           : cabac=1 / ref=3 / deblock=1:0:0 / analyse=0x1:0x111 / me=umh / subme=10 / psy=1 / psy_rd=1.00:0.00 / mixed_ref=1 / me_range=24 / chroma_me=1 / trellis=2 / 8x8dct=0 / cqm=0 / deadzone=21,11 / fast_pskip=1 / chroma_qp_offset=-2 / threads=8 / sliced_threads=0 / nr=0 / decimate=1 / interlaced=0 / bluray_compat=0 / constrained_intra=0 / bframes=2 / b_pyramid=0 / b_adapt=2 / b_bias=0 / direct=3 / weightb=1 / open_gop=0 / weightp=2 / keyint=48 / keyint_min=25 / scenecut=0 / intra_refresh=0 / rc_lookahead=0 / rc=2pass / mbtree=1 / bitrate=4870 / ratetol=1.0 / qcomp=0.50 / qpmin=6 / qpmax=51 / qpstep=4 / cplxblur=20.0 / qblur=0.5 / vbv_maxrate=7305 / vbv_bufsize=9740 / nal_hrd=vbr / ip_ratio=1.40 / aq=1:1.00
    Default                     : Yes
    Forced                      : No
    
    Audio #1
    ID                          : 2
    Format                      : E-AC-3
    Format/Info                 : Enhanced AC-3
    Commercial name             : Dolby Digital Plus
    Codec ID                    : A_EAC3
    Duration                    : 24 min 22 s
    Bit rate mode               : Constant
    Bit rate                    : 128 kb/s
    Channel(s)                  : 2 channels
    Channel layout              : L R
    Sampling rate               : 48.0 kHz
    Frame rate                  : 31.250 FPS (1536 SPF)
    Compression mode            : Lossy
    Stream size                 : 22.3 MiB (2%)
    Title                       : English
    Language                    : English
    Service kind                : Complete Main
    Default                     : Yes
    Forced                      : No
    
    Audio #2
    ID                          : 3
    Format                      : E-AC-3
    Format/Info                 : Enhanced AC-3
    Commercial name             : Dolby Digital Plus
    Codec ID                    : A_EAC3
    Duration                    : 24 min 22 s
    Bit rate mode               : Constant
    Bit rate                    : 128 kb/s
    Channel(s)                  : 2 channels
    Channel layout              : L R
    Sampling rate               : 48.0 kHz
    Frame rate                  : 31.250 FPS (1536 SPF)
    Compression mode            : Lossy
    Stream size                 : 22.3 MiB (2%)
    Title                       : Castilian
    Language                    : Spanish
    Service kind                : Complete Main
    Default                     : No
    Forced                      : No
    
    Audio #3
    ID                          : 4
    Format                      : E-AC-3
    Format/Info                 : Enhanced AC-3
    Commercial name             : Dolby Digital Plus
    Codec ID                    : A_EAC3
    Duration                    : 24 min 22 s
    Bit rate mode               : Constant
    Bit rate                    : 128 kb/s
    Channel(s)                  : 2 channels
    Channel layout              : L R
    Sampling rate               : 48.0 kHz
    Frame rate                  : 31.250 FPS (1536 SPF)
    Compression mode            : Lossy
    Stream size                 : 22.3 MiB (2%)
    Title                       : Spanish
    Language                    : Spanish
    Service kind                : Complete Main
    Default                     : No
    Forced                      : No
    
    Audio #4
    ID                          : 5
    Format                      : E-AC-3
    Format/Info                 : Enhanced AC-3
    Commercial name             : Dolby Digital Plus
    Codec ID                    : A_EAC3
    Duration                    : 24 min 22 s
    Bit rate mode               : Constant
    Bit rate                    : 128 kb/s
    Channel(s)                  : 2 channels
    Channel layout              : L R
    Sampling rate               : 48.0 kHz
    Frame rate                  : 31.250 FPS (1536 SPF)
    Compression mode            : Lossy
    Stream size                 : 22.3 MiB (2%)
    Title                       : French
    Language                    : French
    Service kind                : Complete Main
    Default                     : No
    Forced                      : No
    
    Audio #5
    ID                          : 6
    Format                      : E-AC-3
    Format/Info                 : Enhanced AC-3
    Commercial name             : Dolby Digital Plus
    Codec ID                    : A_EAC3
    Duration                    : 24 min 22 s
    Bit rate mode               : Constant
    Bit rate                    : 128 kb/s
    Channel(s)                  : 2 channels
    Channel layout              : L R
    Sampling rate               : 48.0 kHz
    Frame rate                  : 31.250 FPS (1536 SPF)
    Compression mode            : Lossy
    Stream size                 : 22.3 MiB (2%)
    Title                       : Deutsch
    Language                    : German
    Service kind                : Complete Main
    Default                     : No
    Forced                      : No
    
    Audio #6
    ID                          : 7
    Format                      : E-AC-3
    Format/Info                 : Enhanced AC-3
    Commercial name             : Dolby Digital Plus
    Codec ID                    : A_EAC3
    Duration                    : 24 min 22 s
    Bit rate mode               : Constant
    Bit rate                    : 128 kb/s
    Channel(s)                  : 2 channels
    Channel layout              : L R
    Sampling rate               : 48.0 kHz
    Frame rate                  : 31.250 FPS (1536 SPF)
    Compression mode            : Lossy
    Stream size                 : 22.3 MiB (2%)
    Title                       : Italian
    Language                    : Italian
    Service kind                : Complete Main
    Default                     : No
    Forced                      : No
    
    Audio #7
    ID                          : 8
    Format                      : E-AC-3
    Format/Info                 : Enhanced AC-3
    Commercial name             : Dolby Digital Plus
    Codec ID                    : A_EAC3
    Duration                    : 24 min 22 s
    Bit rate mode               : Constant
    Bit rate                    : 128 kb/s
    Channel(s)                  : 2 channels
    Channel layout              : L R
    Sampling rate               : 48.0 kHz
    Frame rate                  : 31.250 FPS (1536 SPF)
    Compression mode            : Lossy
    Stream size                 : 22.3 MiB (2%)
    Title                       : Brazilian Portuguese
    Language                    : Portuguese
    Service kind                : Complete Main
    Default                     : No
    Forced                      : No
    
    Audio #8
    ID                          : 9
    Format                      : E-AC-3
    Format/Info                 : Enhanced AC-3
    Commercial name             : Dolby Digital Plus
    Codec ID                    : A_EAC3
    Duration                    : 24 min 22 s
    Bit rate mode               : Constant
    Bit rate                    : 128 kb/s
    Channel(s)                  : 2 channels
    Channel layout              : L R
    Sampling rate               : 48.0 kHz
    Frame rate                  : 31.250 FPS (1536 SPF)
    Compression mode            : Lossy
    Stream size                 : 22.3 MiB (2%)
    Title                       : Japanese
    Language                    : Japanese
    Service kind                : Complete Main
    Default                     : No
    Forced                      : No
    
    Audio #9
    ID                          : 10
    Format                      : E-AC-3
    Format/Info                 : Enhanced AC-3
    Commercial name             : Dolby Digital Plus
    Codec ID                    : A_EAC3
    Duration                    : 24 min 22 s
    Bit rate mode               : Constant
    Bit rate                    : 128 kb/s
    Channel(s)                  : 2 channels
    Channel layout              : L R
    Sampling rate               : 48.0 kHz
    Frame rate                  : 31.250 FPS (1536 SPF)
    Compression mode            : Lossy
    Stream size                 : 22.3 MiB (2%)
    Title                       : Japanese (Audio Des--cription)
    Language                    : Japanese
    Service kind                : Complete Main
    Default                     : No
    Forced                      : No
    
    Text #1
    ID                          : 11
    Format                      : UTF-8
    Codec ID                    : S_TEXT/UTF8
    Codec ID/Info               : UTF-8 Plain Text
    Duration                    : 22 min 39 s
    Bit rate                    : 0 b/s
    Count of elements           : 3
    Stream size                 : 76.0 Bytes (0%)
    Title                       : English [Forced]
    Language                    : English
    Default                     : Yes
    Forced                      : Yes
    
    Text #2
    ID                          : 12
    Format                      : UTF-8
    Codec ID                    : S_TEXT/UTF8
    Codec ID/Info               : UTF-8 Plain Text
    Duration                    : 24 min 17 s
    Bit rate                    : 73 b/s
    Count of elements           : 307
    Stream size                 : 13.0 KiB (0%)
    Title                       : English [Full]
    Language                    : English
    Default                     : No
    Forced                      : No
    
    Text #3
    ID                          : 13
    Format                      : UTF-8
    Codec ID                    : S_TEXT/UTF8
    Codec ID/Info               : UTF-8 Plain Text
    Duration                    : 22 min 39 s
    Bit rate                    : 0 b/s
    Count of elements           : 3
    Stream size                 : 84.0 Bytes (0%)
    Title                       : Castilian [Forced]
    Language                    : Spanish
    Default                     : No
    Forced                      : Yes
    
    Text #4
    ID                          : 14
    Format                      : UTF-8
    Codec ID                    : S_TEXT/UTF8
    Codec ID/Info               : UTF-8 Plain Text
    Duration                    : 24 min 17 s
    Bit rate                    : 75 b/s
    Count of elements           : 346
    Stream size                 : 13.5 KiB (0%)
    Title                       : Castilian [Full]
    Language                    : Spanish
    Default                     : No
    Forced                      : No
    
    Text #5
    ID                          : 15
    Format                      : UTF-8
    Codec ID                    : S_TEXT/UTF8
    Codec ID/Info               : UTF-8 Plain Text
    Duration                    : 22 min 39 s
    Bit rate                    : 0 b/s
    Count of elements           : 3
    Stream size                 : 89.0 Bytes (0%)
    Title                       : Spanish [Forced]
    Language                    : Spanish
    Default                     : No
    Forced                      : Yes
    
    Text #6
    ID                          : 16
    Format                      : UTF-8
    Codec ID                    : S_TEXT/UTF8
    Codec ID/Info               : UTF-8 Plain Text
    Duration                    : 24 min 17 s
    Bit rate                    : 68 b/s
    Count of elements           : 345
    Stream size                 : 12.2 KiB (0%)
    Title                       : Spanish [Full]
    Language                    : Spanish
    Default                     : No
    Forced                      : No
    
    Text #7
    ID                          : 17
    Format                      : UTF-8
    Codec ID                    : S_TEXT/UTF8
    Codec ID/Info               : UTF-8 Plain Text
    Duration                    : 22 min 39 s
    Bit rate                    : 0 b/s
    Count of elements           : 4
    Stream size                 : 111 Bytes (0%)
    Title                       : French [Forced]
    Language                    : French
    Default                     : No
    Forced                      : Yes
    
    Text #8
    ID                          : 18
    Format                      : UTF-8
    Codec ID                    : S_TEXT/UTF8
    Codec ID/Info               : UTF-8 Plain Text
    Duration                    : 24 min 17 s
    Bit rate                    : 69 b/s
    Count of elements           : 347
    Stream size                 : 12.3 KiB (0%)
    Title                       : French [Full]
    Language                    : French
    Default                     : No
    Forced                      : No
    
    Text #9
    ID                          : 19
    Format                      : UTF-8
    Codec ID                    : S_TEXT/UTF8
    Codec ID/Info               : UTF-8 Plain Text
    Duration                    : 22 min 39 s
    Bit rate                    : 0 b/s
    Count of elements           : 4
    Stream size                 : 101 Bytes (0%)
    Title                       : Deutsch [Forced]
    Language                    : German
    Default                     : No
    Forced                      : Yes
    
    Text #10
    ID                          : 20
    Format                      : UTF-8
    Codec ID                    : S_TEXT/UTF8
    Codec ID/Info               : UTF-8 Plain Text
    Duration                    : 24 min 17 s
    Bit rate                    : 64 b/s
    Count of elements           : 337
    Stream size                 : 11.4 KiB (0%)
    Title                       : Deutsch [Full]
    Language                    : German
    Default                     : No
    Forced                      : No
    
    Text #11
    ID                          : 21
    Format                      : UTF-8
    Codec ID                    : S_TEXT/UTF8
    Codec ID/Info               : UTF-8 Plain Text
    Duration                    : 22 min 39 s
    Bit rate                    : 0 b/s
    Count of elements           : 3
    Stream size                 : 88.0 Bytes (0%)
    Title                       : Italian [Forced]
    Language                    : Italian
    Default                     : No
    Forced                      : Yes
    
    Text #12
    ID                          : 22
    Format                      : UTF-8
    Codec ID                    : S_TEXT/UTF8
    Codec ID/Info               : UTF-8 Plain Text
    Duration                    : 24 min 17 s
    Bit rate                    : 68 b/s
    Count of elements           : 320
    Stream size                 : 12.2 KiB (0%)
    Title                       : Italian [Full]
    Language                    : Italian
    Default                     : No
    Forced                      : No
    
    Text #13
    ID                          : 23
    Format                      : UTF-8
    Codec ID                    : S_TEXT/UTF8
    Codec ID/Info               : UTF-8 Plain Text
    Duration                    : 24 min 17 s
    Bit rate                    : 64 b/s
    Count of elements           : 333
    Stream size                 : 11.4 KiB (0%)
    Title                       : Portuguese [Full]
    Language                    : Portuguese
    Default                     : No
    Forced                      : No
    
    Text #14
    ID                          : 24
    Format                      : UTF-8
    Codec ID                    : S_TEXT/UTF8
    Codec ID/Info               : UTF-8 Plain Text
    Duration                    : 22 min 39 s
    Bit rate                    : 0 b/s
    Count of elements           : 3
    Stream size                 : 117 Bytes (0%)
    Title                       : Brazilian Portuguese [Forced]
    Language                    : Portuguese
    Default                     : No
    Forced                      : Yes
    
    Text #15
    ID                          : 25
    Format                      : UTF-8
    Codec ID                    : S_TEXT/UTF8
    Codec ID/Info               : UTF-8 Plain Text
    Duration                    : 24 min 17 s
    Bit rate                    : 62 b/s
    Count of elements           : 342
    Stream size                 : 11.1 KiB (0%)
    Title                       : Brazilian Portuguese [Full]
    Language                    : Portuguese
    Default                     : No
    Forced                      : No
    
    Text #16
    ID                          : 26
    Format                      : UTF-8
    Codec ID                    : S_TEXT/UTF8
    Codec ID/Info               : UTF-8 Plain Text
    Duration                    : 24 min 17 s
    Bit rate                    : 56 b/s
    Count of elements           : 326
    Stream size                 : 10.1 KiB (0%)
    Title                       : Polish [Full]
    Language                    : Polish
    Default                     : No
    Forced                      : No
    
    Text #17
    ID                          : 27
    Format                      : UTF-8
    Codec ID                    : S_TEXT/UTF8
    Codec ID/Info               : UTF-8 Plain Text
    Duration                    : 24 min 17 s
    Bit rate                    : 76 b/s
    Count of elements           : 351
    Stream size                 : 13.5 KiB (0%)
    Title                       : Turkish [Full]
    Language                    : Turkish
    Default                     : No
    Forced                      : No
    
    Text #18
    ID                          : 28
    Format                      : UTF-8
    Codec ID                    : S_TEXT/UTF8
    Codec ID/Info               : UTF-8 Plain Text
    Duration                    : 24 min 17 s
    Bit rate                    : 62 b/s
    Count of elements           : 257
    Stream size                 : 11.2 KiB (0%)
    Title                       : Swedish [Full]
    Language                    : Swedish
    Default                     : No
    Forced                      : No
    
    Text #19
    ID                          : 29
    Format                      : UTF-8
    Codec ID                    : S_TEXT/UTF8
    Codec ID/Info               : UTF-8 Plain Text
    Duration                    : 24 min 17 s
    Bit rate                    : 62 b/s
    Count of elements           : 311
    Stream size                 : 11.2 KiB (0%)
    Title                       : Danish [Full]
    Language                    : Danish
    Default                     : No
    Forced                      : No
    
    Text #20
    ID                          : 30
    Format                      : UTF-8
    Codec ID                    : S_TEXT/UTF8
    Codec ID/Info               : UTF-8 Plain Text
    Duration                    : 24 min 17 s
    Bit rate                    : 68 b/s
    Count of elements           : 315
    Stream size                 : 12.1 KiB (0%)
    Title                       : Finnish [Full]
    Language                    : Finnish
    Default                     : No
    Forced                      : No
    
    Text #21
    ID                          : 31
    Format                      : UTF-8
    Codec ID                    : S_TEXT/UTF8
    Codec ID/Info               : UTF-8 Plain Text
    Duration                    : 24 min 17 s
    Bit rate                    : 62 b/s
    Count of elements           : 327
    Stream size                 : 11.1 KiB (0%)
    Title                       : Dutch [Full]
    Language                    : Dutch
    Default                     : No
    Forced                      : No
    
    Text #22
    ID                          : 32
    Format                      : UTF-8
    Codec ID                    : S_TEXT/UTF8
    Codec ID/Info               : UTF-8 Plain Text
    Duration                    : 24 min 17 s
    Bit rate                    : 67 b/s
    Count of elements           : 319
    Stream size                 : 12.1 KiB (0%)
    Title                       : Norwegian [Full]
    Language                    : Norwegian
    Default                     : No
    Forced                      : No
    
    Text #23
    ID                          : 33
    Format                      : UTF-8
    Codec ID                    : S_TEXT/UTF8
    Codec ID/Info               : UTF-8 Plain Text
    Duration                    : 24 min 17 s
    Bit rate                    : 113 b/s
    Count of elements           : 352
    Stream size                 : 20.2 KiB (0%)
    Title                       : Greek [Full]
    Language                    : Greek
    Default                     : No
    Forced                      : No
    
    Text #24
    ID                          : 34
    Format                      : UTF-8
    Codec ID                    : S_TEXT/UTF8
    Codec ID/Info               : UTF-8 Plain Text
    Duration                    : 24 min 17 s
    Bit rate                    : 100 b/s
    Count of elements           : 307
    Stream size                 : 17.9 KiB (0%)
    Title                       : Arabic [Full]
    Language                    : Arabic
    Default                     : No
    Forced                      : No
    
    Text #25
    ID                          : 35
    Format                      : UTF-8
    Codec ID                    : S_TEXT/UTF8
    Codec ID/Info               : UTF-8 Plain Text
    Duration                    : 24 min 17 s
    Bit rate                    : 63 b/s
    Count of elements           : 331
    Stream size                 : 11.4 KiB (0%)
    Title                       : Romanian [Full]
    Language                    : Romanian
    Default                     : No
    Forced                      : No
    
    Text #26
    ID                          : 36
    Format                      : UTF-8
    Codec ID                    : S_TEXT/UTF8
    Codec ID/Info               : UTF-8 Plain Text
    Duration                    : 24 min 17 s
    Bit rate                    : 64 b/s
    Count of elements           : 348
    Stream size                 : 11.4 KiB (0%)
    Title                       : Korean [Full]
    Language                    : Korean
    Default                     : No
    Forced                      : No
    
    Text #27
    ID                          : 37
    Format                      : UTF-8
    Codec ID                    : S_TEXT/UTF8
    Codec ID/Info               : UTF-8 Plain Text
    Duration                    : 24 min 17 s
    Bit rate                    : 54 b/s
    Count of elements           : 350
    Stream size                 : 9.67 KiB (0%)
    Title                       : Chinese (Simplified) [Full]
    Language                    : Chinese
    Default                     : No
    Forced                      : No
    
    Text #28
    ID                          : 38
    Format                      : UTF-8
    Codec ID                    : S_TEXT/UTF8
    Codec ID/Info               : UTF-8 Plain Text
    Duration                    : 24 min 17 s
    Bit rate                    : 58 b/s
    Count of elements           : 350
    Stream size                 : 10.4 KiB (0%)
    Title                       : Chinese (Traditional) [Full]
    Language                    : Chinese
    Default                     : No
    Forced                      : No
    
    Text #29
    ID                          : 39
    Format                      : UTF-8
    Codec ID                    : S_TEXT/UTF8
    Codec ID/Info               : UTF-8 Plain Text
    Duration                    : 24 min 17 s
    Bit rate                    : 90 b/s
    Count of elements           : 412
    Stream size                 : 16.1 KiB (0%)
    Title                       : Japanese [SDH]
    Language                    : Japanese
    Default                     : No
    Forced                      : No
    [Netflix-DL]_Kakegurui_S02
    1
    http://www.filecondo.com/dl.php?f=01ae3d1HHcTO
    2
    http://www.filecondo.com/dl.php?f=q460441HHcUL
    3
    http://www.filecondo.com/dl.php?f=W77ce01HHcVG
    4
    http://www.filecondo.com/dl.php?f=Vbea901HHcWF
    5
    http://www.filecondo.com/dl.php?f=I3856c1HHcXC
    6
    http://www.filecondo.com/dl.php?f=091b971HHcYA
    7
    http://www.filecondo.com/dl.php?f=wf5cfc1HHcZy
    8
    http://www.filecondo.com/dl.php?f=ybe8131HHd0x
    9
    http://www.filecondo.com/dl.php?f=l5fdf51HHd1w
    10
    http://www.filecondo.com/dl.php?f=C183d21HHd2t
    11
    http://www.filecondo.com/dl.php?f=1f63881HHd3s
    12
    http://www.filecondo.com/dl.php?f=ide33a1HHd4p

    [Netflix-DL]_Kakegurui_S01
    1
    http://www.filecondo.com/dl.php?f=Nf1bdc1HHcI8
    2
    http://www.filecondo.com/dl.php?f=31f9131HHcJ6
    3
    http://www.filecondo.com/dl.php?f=Pc77dc1HHcK5
    4
    http://www.filecondo.com/dl.php?f=m51f5a1HHcL3
    5
    http://www.filecondo.com/dl.php?f=L15a261HHcM0
    6
    http://www.filecondo.com/dl.php?f=Ob53aa1HHcMY
    7
    http://www.filecondo.com/dl.php?f=H66fca1HHcNW
    8
    http://www.filecondo.com/dl.php?f=W7bca81HHcOU
    9
    http://www.filecondo.com/dl.php?f=Q08f311HHcPT
    10
    http://www.filecondo.com/dl.php?f=ab4ba31HHcQR
    11
    http://www.filecondo.com/dl.php?f=acda8b1HHcRO
    12
    http://www.filecondo.com/dl.php?f=eadc201HHcSM

  2. #2
    Junior Member
    Join Date
    May 2015
    Posts
    17
    Thanks
    0
    Thanked 0 Times in 0 Posts
    Ŵѡ͹¤Ѻ 辺

Thread Information

Users Browsing this Thread

There are currently 1 users browsing this thread. (0 members and 1 guests)

     

Posting Permissions

  • You may not post new threads
  • You may not post replies
  • You may not post attachments
  • You may not edit your posts