Quote:

เราทุกคนต่างมีความเป็นซูเปอร์ฮีโร่อยู่ในตัวของเรา มันก็แค่ต้องใช้มนตร์วิเศษสักหน่อยเพื่อที่จะดึงมันอ อกมา
ในกรณีของ “บิลลี่ แบทสัน” (แอชเชอร์ แองเจล) นั้นดึงออกมาโดยการตะโกนคำว่า SHAZAM! แล้วจากนั้นเด็กกำพร้าวัย 14 ปี
ที่ต้องเอาตัวรอดในเมืองใหญ่ก็จะกลายมาเป็นซูเปอร์ฮี โร่วัยผู้ใหญ่ “ชาแซม” (แซ็คคารี่ เลวี่) ซึ่งพลังพิเศษนี้ได้รับการสืบทอดมาจากพ่อมดชราคนหนึ่ ง
เขายังคงความเป็นเด็กน้อยด้วยหัวใจที่ซ่อนอยู่ภายในร ่างกายดั่งพระเจ้า ชาแซมจะได้สนุกสนานไปกับตัวของเขาในเวอร์ชั่นผู้ใหญ่
ด้วยการทำในสิ่งที่วัยรุ่นคนไหน ๆ ก็อยากจะทำด้วยพลังพิเศษต่าง ๆ แค่สนุกไปกับพวกมัน! เขาบินได้มั้ย? เขามีความสามารถในการ X-ray รึป่าว?
เขาสามารถปล่อยลำแสงออกมาจากมือได้หรือไม่? เขาจะก้าวข้ามบทเรียนทางสังคมของเขาไปเลยได้มั้ย?
ชาแซมมุ่งมั่นที่จะทดสอบขีดความสามารถของเขา ด้วยความบ้าระห่ำอันแสนสุขของเด็กน้อยคนหนึ่ง
แต่เขาก็ต้องการที่จะเชี่ยวชาญการใช้พลังเหล่านี้ได้ โดยเร็วเพื่อที่จะไปต่อกรกับพลังอำนาจอันร้ายกาจที่ถ ูกควบคุมโดย “ดร. แธดิอุส ซิวานา” (มาร์ค สตรอง)



Quote:


Video
ID : 1
Format : HEVC
Format/Info : High Efficiency Video Coding
Commercial name : HDR10
Format profile : Main [email protected]@High
Codec ID : V_MPEGH/ISO/HEVC
Duration : 2 h 11 min
Bit rate : 76.7 Mb/s
Width : 3 840 pixels
Height : 2 160 pixels
Display aspect ratio : 16:9
Frame rate mode : Constant
Frame rate : 23.976 (24000/1001) FPS
Color space : YUV
Chroma subsampling : 4:2:0 (Type 2)
Bit depth : 10 bits
Bits/(Pixel*Frame) : 0.386
Stream size : 70.6 GiB (90%)
Language : English
Default : Yes
Forced : No
Color range : Limited
Color primaries : BT.2020
Transfer characteristics : PQ
Matrix coefficients : BT.2020 non-constant
Mastering display color primaries : Display P3
Mastering display luminance : min: 0.0050 cd/m2, max: 4000 cd/m2
Maximum Content Light Level : 1351 cd/m2
Maximum Frame-Average Light Level : 384 cd/m2

Audio #1
ID : 2
Format : MLP FBA 16-ch
Format/Info : Meridian Lossless Packing FBA with 16-channel presentation
Commercial name : Dolby TrueHD with Dolby Atmos
Codec ID : A_TRUEHD
Duration : 2 h 11 min
Bit rate mode : Variable
Bit rate : 3 645 kb/s
Maximum bit rate : 5 931 kb/s
Channel(s) : 8 channels
Channel layout : L R C LFE Ls Rs Lb Rb
Sampling rate : 48.0 kHz
Frame rate : 1 200.000 FPS (40 SPF)
Compression mode : Lossless
Stream size : 3.35 GiB (4%)
Language : English
Default : Yes
Forced : No
Number of dynamic objects : 15
Bed channel count : 1 channel
Bed channel configuration : LFE

Audio #2
ID : 3
Format : DTS XLL
Format/Info : Digital Theater Systems
Commercial name : DTS-HD Master Audio
Codec ID : A_DTS
Duration : 2 h 11 min
Bit rate mode : Variable
Bit rate : 4 217 kb/s
Channel(s) : 8 channels
Channel layout : C L R LFE Lb Rb Lss Rss
Sampling rate : 48.0 kHz
Frame rate : 93.750 FPS (512 SPF)
Bit depth : 24 bits
Compression mode : Lossless
Stream size : 3.88 GiB (5%)
Language : English
Default : No
Forced : No

Audio #3
ID : 4
Format : AC-3
Format/Info : Audio Coding 3
Commercial name : Dolby Digital
Codec ID : A_AC3
Duration : 2 h 11 min
Bit rate mode : Constant
Bit rate : 448 kb/s
Channel(s) : 6 channels
Channel layout : L R C LFE Ls Rs
Sampling rate : 48.0 kHz
Frame rate : 31.250 FPS (1536 SPF)
Bit depth : 16 bits
Compression mode : Lossy
Stream size : 422 MiB (1%)
Language : English
Service kind : Complete Main
Default : No
Forced : No

Audio #4
ID : 5
Format : AC-3
Format/Info : Audio Coding 3
Commercial name : Dolby Digital
Codec ID : A_AC3
Duration : 2 h 11 min
Bit rate mode : Constant
Bit rate : 448 kb/s
Channel(s) : 6 channels
Channel layout : L R C LFE Ls Rs
Sampling rate : 48.0 kHz
Frame rate : 31.250 FPS (1536 SPF)
Bit depth : 16 bits
Compression mode : Lossy
Stream size : 422 MiB (1%)
Language : Thai
Service kind : Complete Main
Default : No
Forced : No

Text #1
ID : 6
Format : VobSub
Muxing mode : zlib
Codec ID : S_VOBSUB
Codec ID/Info : Picture based subtitle format used on DVDs
Duration : 2 h 10 min
Bit rate : 4 502 b/s
Count of elements : 1755
Stream size : 4.21 MiB (0%)
Title : 720p
Language : Thai
Default : Yes
Forced : No

Text #2
ID : 7
Format : VobSub
Muxing mode : zlib
Codec ID : S_VOBSUB
Codec ID/Info : Picture based subtitle format used on DVDs
Duration : 2 h 10 min
Bit rate : 7 554 b/s
Count of elements : 1755
Stream size : 7.07 MiB (0%)
Title : 1080p
Language : Thai
Default : No
Forced : No

Text #3
ID : 8
Format : PGS
Muxing mode : zlib
Codec ID : S_HDMV/PGS
Codec ID/Info : Picture based subtitle format used on BDs/HD-DVDs
Duration : 2 h 10 min
Bit rate : 30.3 kb/s
Count of elements : 3520
Stream size : 28.4 MiB (0%)
Title : Thai-PGS
Language : Thai
Default : No
Forced : No

Text #4
ID : 9
Format : PGS
Muxing mode : zlib
Codec ID : S_HDMV/PGS
Codec ID/Info : Picture based subtitle format used on BDs/HD-DVDs
Duration : 2 h 11 min
Bit rate : 39.8 kb/s
Count of elements : 4310
Stream size : 37.4 MiB (0%)
Title : English-PGS
Language : English
Default : No
Forced : No
















Download: cornfile
http://cornfile.com/y620e3wvb31v
Download: mekafile
http://www.mekafile.com/dl.php?f=Ola621bWeUXE