+ Reply to Thread
Results 1 to 6 of 6
  1. #1
    Administrators Duckload.us's Avatar
    Join Date
    Dec 2010
    Posts
    104,368
    Thanks
    9
    Thanked 107,573 Times in 50,736 Posts

    Question (ญี่ปุ่น.ใหม่.มาสเตอร์)-ชินจังเดอะมูฟวี่ ตอน เจ้าหนูกังฟูดุ๊กดิ๊กพิชิตสงครามราเม็ง (2019-TH) [1080p.X264][Master]-[พากย์ไทย]




    เรื่องย่อ : เรื่องราวการผจญภัยเริ่มขึ้นในย่าน China Town โดยชินจัง และผองเพื่อน ได้ตัดสินใจเรียน “กังฟู” ซึ่งเป็นวิชาในตำนาน “เพลงหมัดดุ๊กดิ๊ก” จากคำชวนของ มาซาโอะ พวกเขาได้ฝึกกับนักกังฟูสาวคนหนึ่งชื่อว่า “ทามะ รัน” (พี่สาวคนสวยคนใหม่ของชินจัง) แต่แล้ววันหนึ่งเกิดวิกฤตการณ์ “แบล็คแพนด้าราเม็ง” ระบาดภายในเมืองคาซึคาเบะ แบล๊คแพนด้าราเม็ง ได้ทำให้ผู้คนติดใจในรสชาติและเกิดอาการคลุ้มคลั่ง ชินจัง และผองเพื่อนจึงต้องเร่งฝึกวิชาเพื่อเข้าสู่ขั้นสุดย อดของกระบวนท่า “เพลงหมัดดุ๊กดิ๊ก” เพื่อยับยั้งวิกฤตการณ์ในครั้งนี้ เรื่องราวจะเป็นอย่างไรติดตามได้ใน ชินจัง จอมแก่น เดอะมูฟวี่ ตอน เจ้าหนูกังฟูดุ๊กดิ๊ก พิชิตสงครามราเม็ง !!!


    Format : Matroska
    Format version : Version 4
    File size : 3.81 GiB
    Duration : 1 h 43 min
    Overall bit rate : 5 279 kb/s
    Movie name : Crayon Shin chan - Burst Serving! Kung Fu Boys Ramen Rebellion 1080p

    Video
    ID : 1
    Format : AVC
    Format/Info : Advanced Video Codec
    Format profile : [email protected]
    Format settings : CABAC / 1 Ref Frames
    Format settings, CABAC : Yes
    Format settings, Reference : 1 frame
    Format settings, GOP : M=1, N=25
    Codec ID : V_MPEG4/ISO/AVC
    Duration : 1 h 43 min
    Bit rate mode : Constant
    Bit rate : 4 000 kb/s
    Width : 1 920 pixels
    Height : 1 080 pixels
    Display aspect ratio : 16:9
    Frame rate mode : Constant
    Frame rate : 29.970 (30000/1001) FPS
    Color space : YUV
    Chroma subsampling : 4:2:0
    Bit depth : 8 bits
    Scan type : Progressive
    Bits/(Pixel*Frame) : 0.064
    Stream size : 2.89 GiB (76%)
    Default : Yes
    Forced : No

    Audio #1
    ID : 2
    Format : AC-3
    Format/Info : Audio Coding 3
    Commercial name : Dolby Digital
    Codec ID : A_AC3
    Duration : 1 h 43 min
    Bit rate mode : Constant
    Bit rate : 640 kb/s
    Channel(s) : 6 channels
    Channel layout : L R C LFE Ls Rs
    Sampling rate : 44.1 kHz
    Frame rate : 28.711 FPS (1536 SPF)
    Bit depth : 16 bits
    Compression mode : Lossy
    Stream size : 474 MiB (12%)
    Title : 5.1 AC3-Thai 640k 473m
    Language : Thai
    Service kind : Complete Main
    Default : Yes
    Forced : No

    Audio #2
    ID : 3
    Format : AC-3
    Format/Info : Audio Coding 3
    Commercial name : Dolby Digital
    Codec ID : A_AC3
    Duration : 1 h 43 min
    Bit rate mode : Constant
    Bit rate : 640 kb/s
    Channel(s) : 6 channels
    Channel layout : L R C LFE Ls Rs
    Sampling rate : 44.1 kHz
    Frame rate : 28.711 FPS (1536 SPF)
    Bit depth : 16 bits
    Compression mode : Lossy
    Stream size : 474 MiB (12%)
    Title : 5.1 AC3-Chinese 640k 473m
    Language : Chinese
    Service kind : Complete Main
    Default : No
    Forced : No

    Text #1
    ID : 4
    Format : ASS
    Codec ID : S_TEXT/ASS
    Codec ID/Info : Advanced Sub Station Alpha
    Duration : 1 h 42 min
    Bit rate : 147 b/s
    Count of elements : 1941
    Compression mode : Lossless
    Stream size : 111 KiB (0%)
    Title : ASS
    Language : English
    Default : Yes
    Forced : No

    Text #2
    ID : 5
    Format : UTF-8
    Codec ID : S_TEXT/UTF8
    Codec ID/Info : UTF-8 Plain Text
    Duration : 1 h 42 min
    Bit rate : 54 b/s
    Count of elements : 1941
    Stream size : 41.0 KiB (0%)
    Title : SRT-Hearing Impaired=ผู้บกพร่องทางเสียง
    Language : English
    Default : No
    Forced : No





    Download: cornfile
    http://cornfile.com/77140o50fmi8
    Download: mekafile
    http://www.mekafile.com/dl.php?f=1Dbc7ebWhxcL

  2. The Following 5 Users Say Thank You to Duckload.us For This Useful Post:

    agg001 (07-09-2019), amorn wichian (07-12-2019), apichartdear (07-10-2019), gaszolineskywalker (07-15-2019), Wesker_TOT (07-10-2019)

  3. #2
    Senior Member
    Join Date
    Jun 2014
    Posts
    637
    Thanks
    0
    Thanked 0 Times in 0 Posts
    ขอบคุณครับ

  4. #3
    Senior Member
    Join Date
    Dec 2013
    Posts
    1,665
    Thanks
    3,621
    Thanked 0 Times in 0 Posts
    เอิ๊กกกกกกก...

    ขอบคุณนะครับ...

  5. #4
    Senior Member
    Join Date
    Dec 2013
    Posts
    256
    Thanks
    177
    Thanked 0 Times in 0 Posts
    ขอบคุณครับ

  6. #5
    Senior Member
    Join Date
    Jul 2012
    Posts
    6,045
    Thanks
    0
    Thanked 0 Times in 0 Posts
    ขอบคุณมากจ้า

  7. #6
    Senior Member
    Join Date
    Oct 2012
    Posts
    617
    Thanks
    1,554
    Thanked 0 Times in 0 Posts
    ขอบคุณครับ

+ Reply to Thread

Thread Information

Users Browsing this Thread

There are currently 1 users browsing this thread. (0 members and 1 guests)

     

Posting Permissions

  • You may not post new threads
  • You may not post replies
  • You may not post attachments
  • You may not edit your posts