+ Reply to Thread
Results 1 to 5 of 5
  1. #1
    Administrators Duckload.us's Avatar
    Join Date
    Dec 2010
    Posts
    107,108
    Thanks
    9
    Thanked 111,559 Times in 51,851 Posts

    Question (ญี่ปุ่น.ใหม่.มาสเตอร์)-Kamen Rider Heisei Generations Forever [2019] รวมพลังมาสค์ไรเดอร์ ฟอร์เอเวอร์-[1080p.X264][Master]-[พากย์ไทย]



    *** Kamen Rider Heisei Generations Forever [2019] รวมพลังมาสค์ไรเดอร์ ฟอร์เอเวอร์ ***

    สร้างประวัติศาสตร์รายได้สูงสุดตลอดกาลในประเภทภาพยน ตร์ไรเดอร์ที่ออกฉายเดี่ยว
    โดยกวาดไปถึง 1,545 ล้านเยน และยังทำลายสถิติด้วยการทะลุเป้าหมื่นล้านเยนภายในเว ลา 12 วันที่ออกฉาย

    ภาพยนตร์มีกำหนดจะฉายเมืองไทย 4 เมษายนนี้ ในโรงภาพยนตร์ที่ร่วมรายการ
    ••• ไฟล์ 1080p คุณภาพสูง! •••
    ••• บรรยาย:อังกฤษ ฝัง ! •••
    เสียง ไทย From Master.

    Kamen Raidโ Heisei Jener๊shonzu Foebโ (2018)
    1h 40min | Action | 22 December 2018 (Japan)
    Director: Kyohei Yamaguchi
    Writer: Kento Shimoyama
    Stars: So Okuno, Atsuhiro Inukai, Gaku Oshida

    จู่ ๆ ก็เกิดเหตุการณ์ประหลาดที่ส่งผลกระทบต่อมาส์กไรเดอร์ ในยุคเฮเซย์ เมื่อมาส์กไรเดอร์ทั้งหมดค่อย ๆ เลือนหายไปจากความทรงจำของผู้คน กลับกลายเป็นเพียงรายการสร้างความบันเทิงบนหน้าจอโทร ทัศน์เท่านั้น
    ปริศนาสำคัญของเหตุการณ์ดังกล่าวซ่อนอยู่ภายใต้คำอธิ ษฐานของเด็กหนุ่มผู้คลั่งไคล้มาส์กไรเดอร์ แต่กลับอธิษฐานต่อฟูทารอสว่า ‘ขอให้มาส์กไรเดอร์ไม่มีอยู่จริง’ อะไรที่ทำให้เขาขอพรเช่นนั้น Masked Rider Heisei Generations Forever แล้วการที่พรกลายเป็นจริงนี้จะส่งผลอย่างไร การรวมทีมครั้งนี้นำโดยมาส์กไรเดอร์บิลด์ และราชาแห่งเหล่าามาส์กไรเดอร์ มาสก์ไรเดอร์จิ-โอ ทุกอย่างจะลงเอยอย่างไร มาร่วมหาคำตอบพร้อมกัน !!!

    Format : Matroska
    Format version : Version 4
    File size : 3.69 GiB
    Duration : 1 h 40 min
    Overall bit rate mode : Constant
    Overall bit rate : 5 279 kb/s
    Movie name : Kamen Rider Heisei Generations 2018 1080p

    Video
    ID : 1
    Format : AVC
    Format/Info : Advanced Video Codec
    Format profile : [email protected]
    Format settings : CABAC / 1 Ref Frames
    Format settings, CABAC : Yes
    Format settings, Reference : 1 frame
    Format settings, GOP : M=1, N=25
    Codec ID : V_MPEG4/ISO/AVC
    Duration : 1 h 40 min
    Bit rate mode : Constant
    Bit rate : 4 000 kb/s
    Width : 1 920 pixels
    Height : 1 080 pixels
    Display aspect ratio : 16:9
    Frame rate mode : Constant
    Frame rate : 29.970 (30000/1001) FPS
    Color space : YUV
    Chroma subsampling : 4:2:0
    Bit depth : 8 bits
    Scan type : Progressive
    Bits/(Pixel*Frame) : 0.064
    Stream size : 2.79 GiB (76%)
    Language : Japanese
    Default : Yes
    Forced : No

    Audio #1
    ID : 2
    Format : AC-3
    Format/Info : Audio Coding 3
    Commercial name : Dolby Digital
    Codec ID : A_AC3
    Duration : 1 h 40 min
    Bit rate mode : Constant
    Bit rate : 640 kb/s
    Channel(s) : 6 channels
    Channel layout : L R C LFE Ls Rs
    Sampling rate : 44.1 kHz
    Frame rate : 28.711 FPS (1536 SPF)
    Bit depth : 16 bits
    Compression mode : Lossy
    Stream size : 458 MiB (12%)
    Title : 5.1 AC3-Thai 640k 458m
    Language : Thai
    Service kind : Complete Main
    Default : Yes
    Forced : No

    Audio #2
    ID : 3
    Format : AC-3
    Format/Info : Audio Coding 3
    Commercial name : Dolby Digital
    Codec ID : A_AC3
    Duration : 1 h 40 min
    Bit rate mode : Constant
    Bit rate : 640 kb/s
    Channel(s) : 6 channels
    Channel layout : L R C LFE Ls Rs
    Sampling rate : 44.1 kHz
    Frame rate : 28.711 FPS (1536 SPF)
    Bit depth : 16 bits
    Compression mode : Lossy
    Stream size : 458 MiB (12%)
    Title : 5.1 AC3-Jpn 640k 458m
    Language : Japanese
    Service kind : Complete Main
    Default : No
    Forced : No





    Download: cornfile
    http://cornfile.com/wxekpnhua79g
    Download: mekafile
    http://www.mekafile.com/dl.php?f=Sn227dbWhxqq

  2. The Following 6 Users Say Thank You to Duckload.us For This Useful Post:

    agg001 (07-09-2019), apichartdear (07-10-2019), gaszolineskywalker (07-15-2019), sawara (07-11-2019), spiderpud2 (07-12-2019), Wesker_TOT (07-10-2019)

  3. #2
    Senior Member
    Join Date
    Jun 2014
    Posts
    1,027
    Thanks
    0
    Thanked 0 Times in 0 Posts
    ขอบคุณครับ

  4. #3
    Senior Member
    Join Date
    Dec 2013
    Posts
    1,802
    Thanks
    3,744
    Thanked 0 Times in 0 Posts
    ขอบคุณครับ...

  5. #4
    Senior Member
    Join Date
    Dec 2013
    Posts
    261
    Thanks
    181
    Thanked 0 Times in 0 Posts
    ขอบคุณมากครับ

  6. #5
    Senior Member
    Join Date
    Oct 2012
    Posts
    765
    Thanks
    1,702
    Thanked 0 Times in 0 Posts
    ขอบคุณครับ

+ Reply to Thread

Thread Information

Users Browsing this Thread

There are currently 1 users browsing this thread. (0 members and 1 guests)

     

Posting Permissions

  • You may not post new threads
  • You may not post replies
  • You may not post attachments
  • You may not edit your posts