+ Reply to Thread
Results 1 to 2 of 2
  1. #1
    Administrators Duckload.us's Avatar
    Join Date
    Dec 2010
    Posts
    104,413
    Thanks
    9
    Thanked 107,652 Times in 50,771 Posts

    Question [ฝรั่ง][V2] Spider-Man Far From Home 2019 ไฟล์ภาพ.H.264.720p. [หนังซูม]-[พากย์ไทยโรง]





    เรื่องย่อ

    ทางค่าย Sony Pictures และ Marvel Studios ได้ทำการปล่อยตัวอย่างฉบับเต็มฉบับใหม่ของซูเปอร์ฮีโ ร่ไอ้แมงมุมภาคต่ออย่างSpider-Man: Far From Home ที่ได้รับการยืนยันอย่างเป็นทางการแล้วว่าจะเป็นเหตุ การณ์ที่เกิดขึ้นหลังจาก Avengers: Endgame


    Peter Parker ได้ออกไปทัศนศึกษาในช่วงวันหยุดฤดูร้อนในยุโรปพร้อมก ับเพื่อนๆ และในช่วงที่เขาห่างจากบ้านอยู่ต่างประเทศนี้เองก็เก ิดเหตุการณ์บางอย่างที่ทำให้เขาต้องไปจับมือรวมทีมกั บ Mysterio เพื่อต่อสู้กับเหล่าวายร้าย The Elementals. ภายในตัวอย่างฉบับใหม่นี้ไม่เพียงแค่จะเป็นการสปอยล์ เนื้อเรื่องส่วนสำคัญใน Avengers: Endgame แต่มันยังยืนยันข่าวลือก่อนหน้านี้ที่ว่า ตัวละคร Mysterio ของ Jake Gyllenhaal มาจากโลกมิติอื่น หรือมัลติเวิร์ส ที่ตื่นขึ้นเพราะพลังของมณี อีกด้วย'


    Format : Matroska
    Format version : Version 4
    File size : 3.59 GiB
    Duration : 1 h 59 min
    Overall bit rate : 4 311 kb/s
    Movie name : SPIDER MAN FAR FROM HOME (2019) 720p x264 -Thai_Zoom

    Video
    ID : 1
    Format : AVC
    Format/Info : Advanced Video Codec
    Format profile : [email protected]
    Format settings : CABAC / 1 Ref Frames
    Format settings, CABAC : Yes
    Format settings, Reference : 1 frame
    Format settings, GOP : M=1, N=25
    Codec ID : V_MPEG4/ISO/AVC
    Duration : 1 h 59 min
    Bit rate mode : Constant
    Bit rate : 3 800 kb/s
    Width : 1 280 pixels
    Height : 720 pixels
    Display aspect ratio : 16:9
    Frame rate mode : Constant
    Frame rate : 29.970 (30000/1001) FPS
    Color space : YUV
    Chroma subsampling : 4:2:0
    Bit depth : 8 bits
    Scan type : Progressive
    Bits/(Pixel*Frame) : 0.138
    Stream size : 3.16 GiB (88%)
    Language : Thai
    Default : Yes
    Forced : No

    Audio
    ID : 2
    Format : AC-3
    Format/Info : Audio Coding 3
    Commercial name : Dolby Digital
    Codec ID : A_AC3
    Duration : 1 h 59 min
    Bit rate mode : Constant
    Bit rate : 512 kb/s
    Channel(s) : 2 channels
    Channel layout : L R
    Sampling rate : 44.1 kHz
    Frame rate : 28.711 FPS (1536 SPF)
    Bit depth : 16 bits
    Compression mode : Lossy
    Stream size : 437 MiB (12%)
    Title : 2.0 AC3-Thai 512k 449m
    Language : Thai
    Service kind : Complete Main
    Default : Yes
    Forced : No

    Text
    ID : 3
    Format : UTF-8
    Codec ID : S_TEXT/UTF8
    Codec ID/Info : UTF-8 Plain Text
    Duration : 1 h 58 min
    Bit rate : 69 b/s
    Count of elements : 1658
    Stream size : 60.1 KiB (0%)
    Title : SRT
    Language : English
    Default : Yes
    Forced : No




    Download: cornfile
    http://cornfile.com/a9iy607h0lwv
    Download: mekafile
    http://www.mekafile.com/dl.php?f=BJ5ba1bWmL3H

  2. #2
    Senior Member
    Join Date
    Jun 2014
    Posts
    677
    Thanks
    0
    Thanked 0 Times in 0 Posts
    ขอบคุณครับ

+ Reply to Thread

Thread Information

Users Browsing this Thread

There are currently 1 users browsing this thread. (0 members and 1 guests)

     

Posting Permissions

  • You may not post new threads
  • You may not post replies
  • You may not post attachments
  • You may not edit your posts