+ Reply to Thread
Results 1 to 6 of 6
  1. #1
    Administrators Duckload.us's Avatar
    Join Date
    Dec 2010
    Posts
    104,368
    Thanks
    9
    Thanked 107,573 Times in 50,736 Posts

    Question [ฝรั่ง]-[* ใหม่ *] Captive State (2019) : สงครามปฏิวัติทวงโลก [พากย์ไทย 5.1 + เสียงอังกฤษ DTS] • [บรรยายไทย + อังกฤษ] • [เสียงไทย + ซับไทย From MASTER ]



    ••• ไฟล์ 1080p คุณภาพสูง! •••
    ••• บรรยาย:อังกฤษ SRT! •••
    (ซับ SRT สามารถเปลี่ยนแปลงอักษรบรรยายได้ตามที่ต้องการ สี/ขนาด/ตำแหน่ง/ลักษณะ-และอี่นๆ ซึ่งซับโดยทั่วไปทำไม่ได้เช่นpgs-vob sub ที่มาจาก DVDหรือ Bluray)
    เสียง From ฺMaster.


    Captive State_(2019)
    เรื่องราวของ 10 ปีหลังจากที่มนุษย์ต่างดาวรุกรานโลก พลเมืองของชิคาโกแตกเป็นสองกลุ่ม กลุ่มที่สวามิภักดิ์ต่อเอเลี่ยน
    และกลุ่มกบฏต่อต้านที่ยืนหยัดต่อสู้กับผู้รุกราน และหลังจากถูกรุกรานมานาน หน่วยกองกำลังต่อต้านใต้ดิน
    ที่นำโดยชายลึกลับนามว่า ฟินิกซ์ เฝ้ารอโอกาสที่จะทวงสันติดืนให้เหล่ามนุษย์ ด้าน วิลเลียม มัลลิแกน (จอห์น กู๊ดแมน)
    นายตำรวจมากประสบการณ์ต้องตามล่าฟินีกซ์ ระหว่างภารกิจเขาตกหลุมรักกับ หญิงสาวไร้นาม (เวรา ฟาร์มิกา)
    ทั้งคู่วาดฝันว่าจะสร้างอนาคตร่วมกันในเมืองที่ล่มสล ายแห่งนี้!!!
    .
    .
    ทางฝั่งผู้สมรู้ร่วมคิด ริตเทนเฮาส์ (อลัน รัก) และ เอลลิสัน (เจมส์ แรนซัน) เตรียมปลุกปั่นผู้คนให้ลุกฮือต่อต้านครั้งใหญ่
    พวกเขาเกณฑ์ เกเบรียล เฟรเซอร์ (แอชตัน แซนเดอร์ส) เด็กหนุ่มที่เสียพ่อแม่ไประหว่างช่วงรุกราน เกเบรียลใกล้ชิดกับสมาชิกระดับสูงของฝ่ายกบฏ
    ทำให้มัลลิแกนเชื่อว่าเขาจะเป็นกุญแจสำคัญในการเปิดโ ปงตัวตนที่แท้จริงของฟินิกซ์!!!
    .
    .
    ด้านนักแสดงถือเป็นการรวมทีมนักแสดงที่มีเครดิตน่าสน ใจไว้อย่างคับคั่งทั้ง เจ้าของรางวัลลูกโลกทองคำ จอห์น กู๊ดแมน (10 Cloverfield Lane, Argo),
    นักแสดงหญิงมากฝีมือ เวรา ฟาร์มิกา (The Conjuring, The Commuter) และหนุ่มผิวสีดาวรุ่งมาแรง แอชตัน แซนเดอร์ส (The Equalizer 2, Moonlight)!!!

    Format : Matroska
    Format version : Version 4
    File size : 4.25 GiB
    Duration : 1 h 49 min
    Overall bit rate : 5 550 kb/s
    Movie name : Captive State (2019) BluRay 1080p-[Super HQ][email protected] CUP

    Video
    ID : 1
    Format : AVC
    Format/Info : Advanced Video Codec
    Format profile : [email protected]
    Format settings : CABAC / 1 Ref Frames
    Format settings, CABAC : Yes
    Format settings, Reference : 1 frame
    Format settings, GOP : M=1, N=25
    Codec ID : V_MPEG4/ISO/AVC
    Duration : 1 h 49 min
    Bit rate mode : Constant
    Bit rate : 4 000 kb/s
    Width : 1 920 pixels
    Height : 800 pixels
    Display aspect ratio : 2.40:1
    Frame rate mode : Constant
    Frame rate : 29.970 (30000/1001) FPS
    Color space : YUV
    Chroma subsampling : 4:2:0
    Bit depth : 8 bits
    Scan type : Progressive
    Bits/(Pixel*Frame) : 0.087
    Stream size : 3.06 GiB (72%)
    Default : Yes
    Forced : No

    Audio #1
    ID : 2
    Format : AC-3
    Format/Info : Audio Coding 3
    Commercial name : Dolby Digital
    Codec ID : A_AC3
    Duration : 1 h 49 min
    Bit rate mode : Constant
    Bit rate : 640 kb/s
    Channel(s) : 6 channels
    Channel layout : L R C LFE Ls Rs
    Sampling rate : 44.1 kHz
    Frame rate : 28.711 FPS (1536 SPF)
    Bit depth : 16 bits
    Compression mode : Lossy
    Stream size : 502 MiB (12%)
    Title : 5.1 AC3-Thai 640k 501m
    Language : Thai
    Service kind : Complete Main
    Default : Yes
    Forced : No

    Audio #2
    ID : 3
    Format : DTS
    Format/Info : Digital Theater Systems
    Codec ID : A_DTS
    Duration : 1 h 49 min
    Bit rate mode : Constant
    Bit rate : 911 kb/s
    Channel(s) : 6 channels
    Channel layout : C L R Ls Rs LFE
    Sampling rate : 11.025 kHz
    Frame rate : 10.767 FPS (1024 SPF)
    Bit depth : 16 bits
    Compression mode : Lossy
    Stream size : 714 MiB (16%)
    Title : dts 5.1-Eng 11025-714m
    Language : English
    Default : No
    Forced : No

    Text #1
    ID : 4
    Format : UTF-8
    Codec ID : S_TEXT/UTF8
    Codec ID/Info : UTF-8 Plain Text
    Duration : 1 h 44 min
    Bit rate : 37 b/s
    Count of elements : 829
    Stream size : 28.5 KiB (0%)
    Title : SRT
    Language : English
    Default : Yes
    Forced : No

    Text #2
    ID : 5
    Format : UTF-8
    Codec ID : S_TEXT/UTF8
    Codec ID/Info : UTF-8 Plain Text
    Duration : 1 h 45 min
    Bit rate : 46 b/s
    Count of elements : 1123
    Stream size : 35.6 KiB (0%)
    Title : SRT-Hearing Impaired=ผู้บกพร่องทางเสียง
    Language : English
    Default : No
    Forced : No





    Download: cornfile
    http://cornfile.com/qoqirrgt5tsg
    Download: mekafile
    http://www.mekafile.com/dl.php?f=Kua445bWmLaO

  2. The Following 5 Users Say Thank You to Duckload.us For This Useful Post:

    amorn wichian (07-11-2019), bigbang06 (07-11-2019), noi54 (07-11-2019), Tatum03 (07-12-2019), Wesker_TOT (07-12-2019)

  3. #2
    Senior Member
    Join Date
    Jun 2014
    Posts
    637
    Thanks
    0
    Thanked 0 Times in 0 Posts
    ขอบคุณครับ

  4. #3
    Junior Member
    Join Date
    Mar 2011
    Posts
    3
    Thanks
    0
    Thanked 0 Times in 0 Posts
    5.1 เทียมใช่มั้ยครับ รบกวนระบุให้ชัดเจนหน่อยครับ

  5. #4
    Senior Member
    Join Date
    Oct 2013
    Location
    Thailand
    Posts
    1,112
    Thanks
    988
    Thanked 0 Times in 0 Posts
    ขอบคุณมาก

  6. #5
    Senior Member
    Join Date
    Dec 2013
    Posts
    1,665
    Thanks
    3,621
    Thanked 0 Times in 0 Posts
    ขอบคุณนะครับ...

  7. #6
    Senior Member
    Join Date
    Dec 2011
    Posts
    2,128
    Thanks
    0
    Thanked 0 Times in 0 Posts
    โหลดจาก Meka ค่ะ ไม่เห็นมีซับไทยเลยอ่ะ มีแต่ซับอังกฤษ

+ Reply to Thread

Thread Information

Users Browsing this Thread

There are currently 1 users browsing this thread. (0 members and 1 guests)

     

Posting Permissions

  • You may not post new threads
  • You may not post replies
  • You may not post attachments
  • You may not edit your posts