+ Reply to Thread
Results 1 to 2 of 2
  1. #1
    Administrators Duckload.us's Avatar
    Join Date
    Dec 2010
    Posts
    107,215
    Thanks
    9
    Thanked 111,622 Times in 51,872 Posts

    Question [ฝรั่ง 18+]-((> x265<)) The Aftermath (2019) : อาฟเตอร์แมท [พากย์ไทย 5.1 + เสียงอังกฤษ DTS-HD MA 5.1]-[บรรยายไทย + อังกฤษ]-[เสียงไทย + ซับไทย From MASTER +ซับ PGS คมชัด]



    The Aftermath (2019) อาฟเตอร์แมท เรื่องราวหลังสงครามโลก The Aftermath ครั้งที่ 2 พันเอก Lewis และภรรยาของเขา Rachael Morgan ที่ต้องเข้ามาอยูในบ้านหลังใหม่ หลังจากที่แต่งงานกัน แต่พวกเขาต้องแชร์บ้านอยู่ร่วมกับเจ้าของบ้านคนเก่า ทำให้เรื่องราววุ่นวายเกิดขึ้น!!!

    Code:
    Format                      : Matroska
    Format version              : Version 4 / Version 2
    File size                   : 6.85 GiB
    Duration                    : 1 h 48 min
    Overall bit rate            : 9 017 kb/s
    Movie name                  : [email protected]Siambit
    
    Video
    ID                          : 1
    Format                      : HEVC
    Format/Info                 : High Efficiency Video Coding
    Format profile              : Main [email protected]@High
    Codec ID                    : V_MPEGH/ISO/HEVC
    Duration                    : 1 h 48 min
    Bit rate                    : 3 751 kb/s
    Width                       : 1 920 pixels
    Height                      : 1 036 pixels
    Display aspect ratio        : 1.85:1
    Frame rate mode             : Constant
    Frame rate                  : 23.976 (24000/1001) FPS
    Color space                 : YUV
    Chroma subsampling          : 4:2:0
    Bit depth                   : 10 bits
    Bits/(Pixel*Frame)          : 0.079
    Stream size                 : 2.85 GiB (42%)
    Title                       : [email protected]Siambit
    Writing library             : x265 - H.265/HEVC codec
    Language                    : English
    Default                     : Yes
    Forced                      : No
    
    Audio #1
    ID                          : 2
    Format                      : AC-3
    Format/Info                 : Audio Coding 3
    Format settings, Endianness : Big
    Codec ID                    : A_AC3
    Duration                    : 1 h 48 min
    Bit rate mode               : Constant
    Bit rate                    : 384 kb/s
    Channel(s)                  : 6 channels
    Channel positions           : Front: L C R, Side: L R, LFE
    Sampling rate               : 48.0 kHz
    Frame rate                  : 31.250 FPS (1536 spf)
    Bit depth                   : 16 bits
    Compression mode            : Lossy
    Delay relative to video     : 1 s 0 ms
    Stream size                 : 298 MiB (4%)
    Title                       : Thai DVD Master
    Language                    : Thai
    Service kind                : Complete Main
    Default                     : Yes
    Forced                      : Yes
    
    Audio #2
    ID                          : 3
    Format                      : DTS
    Format/Info                 : Digital Theater Systems
    Format profile              : MA / Core
    Mode                        : 16
    Format settings, Endianness : Big
    Codec ID                    : A_DTS
    Duration                    : 1 h 48 min
    Bit rate mode               : Variable / Constant
    Bit rate                    : 3 313 kb/s / 1 509 kb/s
    Channel(s)                  : 6 channels
    Channel positions           : Front: L C R, Side: L R, LFE
    Sampling rate               : 48.0 kHz
    Frame rate                  : 93.750 FPS (512 spf)
    Bit depth                   : 24 bits
    Compression mode            : Lossless / Lossy
    Stream size                 : 2.51 GiB (37%)
    Title                       : English DTS-HD MA 5.1
    Language                    : English
    Default                     : No
    Forced                      : No
    
    Audio #3
    ID                          : 4
    Format                      : DTS
    Format/Info                 : Digital Theater Systems
    Mode                        : 16
    Format settings, Endianness : Big
    Codec ID                    : A_DTS
    Duration                    : 1 h 48 min
    Bit rate mode               : Constant
    Bit rate                    : 1 509 kb/s
    Channel(s)                  : 6 channels
    Channel positions           : Front: L C R, Side: L R, LFE
    Sampling rate               : 48.0 kHz
    Frame rate                  : 93.750 FPS (512 spf)
    Bit depth                   : 24 bits
    Compression mode            : Lossy
    Stream size                 : 1.15 GiB (17%)
    Title                       : English
    Language                    : English
    Default                     : No
    Forced                      : No
    
    Text #1
    ID                          : 5
    Format                      : VobSub
    Muxing mode                 : zlib
    Codec ID                    : S_VOBSUB
    Codec ID/Info               : Picture based subtitle format used on DVDs
    Duration                    : 1 h 47 min
    Bit rate                    : 1 257 b/s
    Count of elements           : 833
    Stream size                 : 989 KiB (0%)
    Title                       : Thai 480p From DVD Master
    Language                    : Thai
    Default                     : No
    Forced                      : No
    
    Text #2
    ID                          : 6
    Format                      : VobSub
    Muxing mode                 : zlib
    Codec ID                    : S_VOBSUB
    Codec ID/Info               : Picture based subtitle format used on DVDs
    Duration                    : 1 h 48 min
    Bit rate                    : 2 010 b/s
    Count of elements           : 836
    Stream size                 : 1.56 MiB (0%)
    Title                       : Thai 720p
    Language                    : Thai
    Default                     : No
    Forced                      : No
    
    Text #3
    ID                          : 7
    Format                      : VobSub
    Muxing mode                 : zlib
    Codec ID                    : S_VOBSUB
    Codec ID/Info               : Picture based subtitle format used on DVDs
    Duration                    : 1 h 48 min
    Bit rate                    : 3 254 b/s
    Count of elements           : 836
    Stream size                 : 2.53 MiB (0%)
    Title                       : Thai 1080p
    Language                    : Thai
    Default                     : Yes
    Forced                      : Yes
    
    Text #4
    ID                          : 8
    Format                      : VobSub
    Muxing mode                 : zlib
    Codec ID                    : S_VOBSUB
    Codec ID/Info               : Picture based subtitle format used on DVDs
    Duration                    : 1 h 48 min
    Bit rate                    : 3 253 b/s
    Count of elements           : 836
    Stream size                 : 2.53 MiB (0%)
    Title                       : Thai 1080p Yellow
    Language                    : Thai
    Default                     : No
    Forced                      : No
    
    Text #5
    ID                          : 9
    Format                      : VobSub
    Muxing mode                 : zlib
    Codec ID                    : S_VOBSUB
    Codec ID/Info               : Picture based subtitle format used on DVDs
    Duration                    : 1 h 48 min
    Bit rate                    : 3 260 b/s
    Count of elements           : 836
    Stream size                 : 2.53 MiB (0%)
    Title                       : Thai 1080p Low
    Language                    : Thai
    Default                     : No
    Forced                      : No
    
    Text #6
    ID                          : 10
    Format                      : VobSub
    Muxing mode                 : zlib
    Codec ID                    : S_VOBSUB
    Codec ID/Info               : Picture based subtitle format used on DVDs
    Duration                    : 1 h 48 min
    Bit rate                    : 4 251 b/s
    Count of elements           : 836
    Stream size                 : 3.30 MiB (0%)
    Title                       : Thai 1080p BIG
    Language                    : Thai
    Default                     : No
    Forced                      : No
    
    Text #7
    ID                          : 11
    Format                      : VobSub
    Muxing mode                 : zlib
    Codec ID                    : S_VOBSUB
    Codec ID/Info               : Picture based subtitle format used on DVDs
    Duration                    : 1 h 48 min
    Bit rate                    : 4 260 b/s
    Count of elements           : 836
    Stream size                 : 3.31 MiB (0%)
    Title                       : Thai 1080p Low [BIG]
    Language                    : Thai
    Default                     : No
    Forced                      : No
    
    Text #8
    ID                          : 12
    Format                      : PGS
    Muxing mode                 : zlib
    Codec ID                    : S_HDMV/PGS
    Codec ID/Info               : Picture based subtitle format used on BDs/HD-DVDs
    Duration                    : 1 h 48 min
    Bit rate                    : 10.6 kb/s
    Count of elements           : 1674
    Stream size                 : 8.19 MiB (0%)
    Title                       : Thai PGS
    Language                    : Thai
    Default                     : No
    Forced                      : No
    
    Text #9
    ID                          : 13
    Format                      : PGS
    Muxing mode                 : zlib
    Codec ID                    : S_HDMV/PGS
    Codec ID/Info               : Picture based subtitle format used on BDs/HD-DVDs
    Duration                    : 1 h 48 min
    Bit rate                    : 10.8 kb/s
    Count of elements           : 1674
    Stream size                 : 8.38 MiB (0%)
    Title                       : Thai PGS Yellow
    Language                    : Thai
    Default                     : No
    Forced                      : No
    
    Text #10
    ID                          : 14
    Format                      : PGS
    Muxing mode                 : zlib
    Codec ID                    : S_HDMV/PGS
    Codec ID/Info               : Picture based subtitle format used on BDs/HD-DVDs
    Duration                    : 1 h 48 min
    Bit rate                    : 10.6 kb/s
    Count of elements           : 1674
    Stream size                 : 8.27 MiB (0%)
    Title                       : Thai PGS Low
    Language                    : Thai
    Default                     : No
    Forced                      : No
    
    Text #11
    ID                          : 15
    Format                      : PGS
    Muxing mode                 : zlib
    Codec ID                    : S_HDMV/PGS
    Codec ID/Info               : Picture based subtitle format used on BDs/HD-DVDs
    Duration                    : 1 h 48 min
    Bit rate                    : 9 437 b/s
    Count of elements           : 2254
    Stream size                 : 7.33 MiB (0%)
    Title                       : English
    Language                    : English
    Default                     : No
    Forced                      : No
    
    Menu
    00:00:00.000                : en:Chapter 01
    00:04:00.198                : en:Chapter 02
    00:10:37.386                : en:Chapter 03
    00:14:21.151                : en:Chapter 04
    00:17:51.779                : en:Chapter 05
    00:22:40.525                : en:Chapter 06
    00:27:50.877                : en:Chapter 07
    00:35:09.524                : en:Chapter 08
    00:37:11.020                : en:Chapter 09
    00:41:33.073                : en:Chapter 10
    00:46:29.077                : en:Chapter 11
    00:49:59.871                : en:Chapter 12
    00:56:03.693                : en:Chapter 13
    01:02:05.680                : en:Chapter 14
    01:04:49.635                : en:Chapter 15
    01:09:01.262                : en:Chapter 16
    01:15:59.304                : en:Chapter 17
    01:19:48.033                : en:Chapter 18
    01:22:09.049                : en:Chapter 19
    01:27:01.507                : en:Chapter 20
    01:29:36.788                : en:Chapter 21
    01:33:39.613                : en:Chapter 22
    01:39:16.033                : en:Chapter 23
     01:42:47.870                : en:Chapter 24














    Download: cornfile
    http://cornfile.com/qsuufg292uog
    Download: mekafile
    http://www.mekafile.com/dl.php?f=0Ic172bWmTC0

  2. #2
    Senior Member
    Join Date
    Jun 2012
    Posts
    1,214
    Thanks
    0
    Thanked 1 Time in 1 Post
    ขอบคุณครับ

+ Reply to Thread

Thread Information

Users Browsing this Thread

There are currently 1 users browsing this thread. (0 members and 1 guests)

     

Posting Permissions

  • You may not post new threads
  • You may not post replies
  • You may not post attachments
  • You may not edit your posts