+ Reply to Thread
Results 1 to 2 of 2
  1. #1
    Administrators Duckload.us's Avatar
    Join Date
    Dec 2010
    Posts
    104,368
    Thanks
    9
    Thanked 107,573 Times in 50,736 Posts

    Question [ฝรั่ง]-Alita: Battle Angel (2019) อลิตา แบทเทิล แองเจิ้ล - [พากย์ไทย+อังกฤษ] [บรรยายไทย+อังกฤษ] 2160p.HDR.WEBrip.HEVC.ATMOS.5.1




    อลิตา (โรซา ซาลาซาร์) ถูกพบตัวในพื้นที่เล็กๆ ของไอรอนซิตี้โดยไอโด (คริสทอฟ วอลซ์) แพทย์หุ่นยนต์ขี้สงสารที่นำหุ่นยนต์ไซบอร์กอลิตาที่ไ ม่รู้สึกตัวไปยังคลินิคของเขาหลังจากที่เธอถูกทอดทิ้ ง

    เมื่ออลิตาตื่นขึ้นมาเธอสูญเสียความทรงจำ ไม่รู้ตัวเองเป็นใคร จดจำโลกที่เธออยู่ไม่ได้เลย ทุกสิ่งกลายเป็นความแปลกใหม่สำหรับอลิตา ทุกเรื่องราวเกิดขึ้นกับเธอเหมือนเป็นครั้งแรก เมื่อเธอต้องเรียนรู้การใช้ชีวิตใหม่และถนนลวงตาของไ อรอนซิตี้ ไอโดพยายามปกป้องอลิตาจากอดีตซับซ้อนของเธอ ขณะเดียวกันเพื่อนคนใหม่ของเธอ ฮิวโก้ (คีแอน จอห์นสัน) ได้อาสาช่วยเธอค้นหาความทรงจำ ความรักได้ก่อตัวขึ้นระหว่างทั้งคู่จนกระทั่งมีอำนาจ ความชั่วร้ายมาตามล่าอลิตาและมิตรภาพใหม่ของเธอ จากนั้นอลิตาจึงพบว่าเธอมีความสามารถพิเศษด้านการต่อ สู้ที่สามารถช่วยเพื่อนๆ และครอบครัวอันเป็นที่รักของเธอได้ อลิตามุ่งมั่นที่จะค้นหาที่มาของตัวเอง จนได้เกิดการผจญภัยที่นำเธอสู่ความอยุติธรรมของโลกแห ่งความชั่วร้ายและการทุจริต อีกทั้งยังได้พบว่าเธอคือหญิงสาวเพียงคนเดียวที่จะเป ลี่ยนแปลงโลกที่เธออาศัยอยู่ได้


    Duration : 2 h 1 min
    Overall bit rate : 13.0 Mb/s
    Encoded date : UTC 2019-07-10 08:39:22
    Writing application : mkvmerge v35.0.0 ('All The Love In The World') 64-bit
    Writing library : libebml v1.3.9 + libmatroska v1.5.2
    Cover : Yes
    Attachments : cover

    Video
    ID : 1
    Format : HEVC
    Format/Info : High Efficiency Video Coding
    Format profile : Main [email protected]@High
    HDR format : SMPTE ST 2086, HDR10 compatible
    Codec ID : V_MPEGH/ISO/HEVC
    Duration : 2 h 1 min
    Bit rate : 9 987 kb/s
    Width : 3 840 pixels
    Height : 1 608 pixels
    Display aspect ratio : 2.40:1
    Frame rate mode : Constant
    Frame rate : 23.976 (24000/1001) FPS
    Color space : YUV
    Chroma subsampling : 4:2:0
    Bit depth : 10 bits
    Bits/(Pixel*Frame) : 0.067
    Stream size : 8.51 GiB (77%)
    Language : English
    Default : Yes
    Forced : No
    Color range : Limited
    Color primaries : BT.2020
    Transfer characteristics : PQ
    Matrix coefficients : BT.2020 non-constant
    Mastering display color primaries : Display P3
    Mastering display luminance : min: 0.0001 cd/m2, max: 1000 cd/m2

    Audio #1
    ID : 2
    Format : E-AC-3 JOC
    Format/Info : Enhanced AC-3 with Joint Object Coding
    Commercial name : Dolby Digital Plus with Dolby Atmos
    Codec ID : A_EAC3
    Duration : 2 h 1 min
    Bit rate mode : Constant
    Bit rate : 576 kb/s
    Channel(s) : 6 channels
    Channel layout : L R C LFE Ls Rs
    Sampling rate : 48.0 kHz
    Frame rate : 31.250 FPS (1536 SPF)
    Compression mode : Lossy
    Delay relative to video : 83 ms
    Stream size : 502 MiB (4%)
    Language : English
    Service kind : Complete Main
    Default : No
    Forced : No
    Complexity index : 16
    Number of dynamic objects : 15
    Bed channel count : 1 channel
    Bed channel configuration : LFE

    Audio #2
    ID : 3
    Format : DTS
    Format/Info : Digital Theater Systems
    Codec ID : A_DTS
    Duration : 2 h 1 min
    Bit rate mode : Constant
    Bit rate : 1 509 kb/s
    Channel(s) : 6 channels
    Channel layout : C L R Ls Rs LFE
    Sampling rate : 48.0 kHz
    Frame rate : 93.750 FPS (512 SPF)
    Bit depth : 16 bits
    Compression mode : Lossy
    Stream size : 1.29 GiB (12%)
    Title : Thai Modify
    Language : Thai
    Default : No
    Forced : No

    Audio #3
    ID : 4
    Format : AAC LC
    Format/Info : Advanced Audio Codec Low Complexity
    Codec ID : A_AAC-2
    Duration : 2 h 1 min
    Bit rate : 161 kb/s
    Channel(s) : 2 channels
    Channel layout : L R
    Sampling rate : 48.0 kHz
    Frame rate : 46.875 FPS (1024 SPF)
    Compression mode : Lossy
    Stream size : 140 MiB (1%)
    Title : Thai Master
    Language : Thai
    Default : No
    Forced : Yes

    Audio #4
    ID : 5
    Format : AC-3
    Format/Info : Audio Coding 3
    Commercial name : Dolby Digital
    Codec ID : A_AC3
    Duration : 2 h 1 min
    Bit rate mode : Constant
    Bit rate : 640 kb/s
    Channel(s) : 6 channels
    Channel layout : L R C LFE Ls Rs
    Sampling rate : 48.0 kHz
    Frame rate : 31.250 FPS (1536 SPF)
    Bit depth : 16 bits
    Compression mode : Lossy
    Stream size : 558 MiB (5%)
    Title : Thai Modify
    Language : Thai
    Service kind : Complete Main
    Default : Yes
    Forced : No

    Text #1
    ID : 6
    Format : VobSub
    Muxing mode : zlib
    Codec ID : S_VOBSUB
    Codec ID/Info : Picture based subtitle format used on DVDs
    Duration : 1 h 55 min
    Bit rate : 11.9 kb/s
    Count of elements : 1588
    Stream size : 9.84 MiB (0%)
    Language : English
    Default : No
    Forced : No

    Text #2
    ID : 7
    Format : UTF-8
    Codec ID : S_TEXT/UTF8
    Codec ID/Info : UTF-8 Plain Text
    Duration : 1 h 55 min
    Bit rate : 45 b/s
    Count of elements : 1588
    Stream size : 38.5 KiB (0%)
    Language : English
    Default : No
    Forced : No

    Text #3
    ID : 8
    Format : PGS
    Muxing mode : zlib
    Codec ID : S_HDMV/PGS
    Codec ID/Info : Picture based subtitle format used on BDs/HD-DVDs
    Duration : 1 h 55 min
    Bit rate : 46.3 kb/s
    Count of elements : 3176
    Stream size : 38.4 MiB (0%)
    Title : White
    Language : English
    Default : Yes
    Forced : No

    Text #4
    ID : 9
    Format : PGS
    Muxing mode : zlib
    Codec ID : S_HDMV/PGS
    Codec ID/Info : Picture based subtitle format used on BDs/HD-DVDs
    Duration : 1 h 55 min
    Bit rate : 46.3 kb/s
    Count of elements : 3176
    Stream size : 38.4 MiB (0%)
    Title : Yellow
    Language : English
    Default : No
    Forced : No

    Text #5
    ID : 10
    Format : VobSub
    Muxing mode : zlib
    Codec ID : S_VOBSUB
    Codec ID/Info : Picture based subtitle format used on DVDs
    Duration : 2 h 1 min
    Bit rate : 7 530 b/s
    Count of elements : 1263
    Stream size : 6.54 MiB (0%)
    Title : Thai 1080p
    Language : Thai
    Default : No
    Forced : Yes

    Text #6
    ID : 11
    Format : VobSub
    Muxing mode : zlib
    Codec ID : S_VOBSUB
    Codec ID/Info : Picture based subtitle format used on DVDs
    Duration : 2 h 1 min
    Bit rate : 7 516 b/s
    Count of elements : 1263
    Stream size : 6.53 MiB (0%)
    Title : Thai 1080p Yellow
    Language : Thai
    Default : No
    Forced : No

    Text #7
    ID : 12
    Format : PGS
    Muxing mode : zlib
    Codec ID : S_HDMV/PGS
    Codec ID/Info : Picture based subtitle format used on BDs/HD-DVDs
    Duration : 2 h 1 min
    Bit rate : 29.7 kb/s
    Count of elements : 2526
    Stream size : 25.8 MiB (0%)
    Title : Thai PGS
    Language : Thai
    Default : No
    Forced : No

    Text #8
    ID : 13
    Format : PGS
    Muxing mode : zlib
    Codec ID : S_HDMV/PGS
    Codec ID/Info : Picture based subtitle format used on BDs/HD-DVDs
    Duration : 2 h 1 min
    Bit rate : 29.7 kb/s
    Count of elements : 2526
    Stream size : 25.8 MiB (0%)
    Title : Thai PGS OUT
    Language : Thai
    Default : No
    Forced : No




    Download: cornfile
    http://cornfile.com/3aix0mjco3e6
    Download: mekafile
    http://www.mekafile.com/dl.php?f=uF385bbWokO0

  2. The Following User Says Thank You to Duckload.us For This Useful Post:

    Wesker_TOT (07-17-2019)

  3. #2
    Senior Member
    Join Date
    Dec 2013
    Posts
    1,665
    Thanks
    3,621
    Thanked 0 Times in 0 Posts
    ขอบคุณมากครับ...

+ Reply to Thread

Thread Information

Users Browsing this Thread

There are currently 1 users browsing this thread. (0 members and 1 guests)

     

Posting Permissions

  • You may not post new threads
  • You may not post replies
  • You may not post attachments
  • You may not edit your posts