Alternate Titles: love in the moonlight

Can a disguise be an obstacle to real love? Hong Ra-on is a young woman during the Joseon Dynasty who makes a living by dressing up like a man and giving relationship advice to the lovelorn young men who seek her counsel. A love letter that Ra-on writes for a client brings her in contact with Lee Yeong, who is the Crown Prince Hyomyeong, the first son of King Sunjo and heir to the throne. But neither knows the true identity of the other. As Lee Yeong becomes strangely drawn to Ra-on, the crown prince抯 eunuchs brings her into the palace as one of their own, giving her insights into palace life that no woman has seen before. Inside the palace, Ra-on becomes entangled with the poet Kim Sat-gat, Lee Yeong抯 trusted confidante scholar Kim Yoon-sung, who is the crown prince抯 nemesis and Jo Ha-yeon, the chosen royal consort for Lee Yeong. Can Ra-on survive the royal palace life without being exposed as a woman?


Directed By: Baek Sang-Hoon
Written By: Yoon Yi-Soo Kim Min-Jung Im Ye-Jin
Produced By: Kang Byung Taek
Actors: Park Bo-gum Kim You-jung Jung Jin-young Chae Soo-bin Kwak Dong-yeon Kim Seung-su Jeon Mi-sun Heo Jung-Eun Jung Yoo-Min Cheon Ho-jin Jung Hye-Sung Jang Gwang
Released: 22 Aug 2016
Ended: 18 Oct 2016
Runtime: 59 Mins
Genre: Drama Comedy Romance Family
Countries: South Korea
Languages: Korean
TV: KBS TV2














General
Complete name : H:Love.in.the.Moonlight.S01.REPACK.1080p.NF.WEB-DL.DDP2.0.x264-Ao云 画 的 月 光 .Love.in.the.Moonlight.S01E01.1080p.NF.WEB-DL.DDP2.0.x264-Ao.mkv
Format : Matroska
Format version : Version 4
File size : 2.89 GiB
Duration : 59 min 47 s
Overall bit rate mode : Variable
Overall bit rate : 6 924 kb/s
Encoded date : UTC 2019-07-08 12:06:42
Writing application : mkvmerge v32.0.0 ('Astral Progressions') 64-bit
Writing library : libebml v1.3.7 + libmatroska v1.5.0

Video
ID : 1
Format : AVC
Format/Info : Advanced Video Codec
Format profile : [email protected]
Format settings : CABAC / 3 Ref Frames
Format settings, CABAC : Yes
Format settings, Reference fra : 3 frames
Codec ID : V_MPEG4/ISO/AVC
Duration : 59 min 46 s
Bit rate mode : Variable
Bit rate : 6 810 kb/s
Maximum bit rate : 10.2 Mb/s
Width : 1 920 pixels
Height : 1 080 pixels
Display aspect ratio : 16:9
Frame rate mode : Constant
Frame rate : 23.976 (24000/1001) FPS
Color space : YUV
Chroma subsampling : 4:2:0
Bit depth : 8 bits
Scan type : Progressive
Bits/(Pixel*Frame) : 0.137
Stream size : 2.84 GiB (98%)
Writing library : x264 core 148 r2715 7e75228
Encoding settings : cabac=1 / ref=3 / deblock=1:0:0 / analyse=0x1:0x111 / me=umh / subme=10 / psy=1 / psy_rd=1.00:0.00 / mixed_ref=1 / me_range=24 / chroma_me=1 / trellis=2 / 8x8dct=0 / cqm=0 / deadzone=21,11 / fast_pskip=1 / chroma_qp_offset=-2 / threads=8 / lookahead_threads=1 / sliced_threads=0 / nr=0 / decimate=1 / interlaced=0 / bluray_compat=0 / stitchable=1 / constrained_intra=0 / bframes=2 / b_pyramid=0 / b_adapt=2 / b_bias=0 / direct=3 / weightb=1 / open_gop=0 / weightp=2 / keyint=48 / keyint_min=25 / scenecut=0 / intra_refresh=0 / rc_lookahead=48 / rc=2pass / mbtree=1 / bitrate=6810 / ratetol=1.0 / qcomp=0.50 / qpmin=6 / qpmax=51 / qpstep=4 / cplxblur=20.0 / qblur=0.5 / vbv_maxrate=10215 / vbv_bufsize=13620 / nal_hrd=vbr / filler=0 / ip_ratio=1.40 / aq=1:1.00
Default : Yes
Forced : No

Audio
ID : 2
Format : E-AC-3
Format/Info : Enhanced AC-3
Commercial name : Dolby Digital Plus
Codec ID : A_EAC3
Duration : 59 min 47 s
Bit rate mode : Constant
Bit rate : 128 kb/s
Channel(s) : 2 channels
Channel layout : L R
Sampling rate : 48.0 kHz
Frame rate : 31.250 FPS (1536 SPF)
Compression mode : Lossy
Stream size : 54.7 MiB (2%)
Title : Korean [Original]
Language : Korean
Service kind : Complete Main
Default : Yes
Forced : No

Text #1
ID : 3
Format : UTF-8
Codec ID : S_TEXT/UTF8
Codec ID/Info : UTF-8 Plain Text
Duration : 58 min 38 s
Bit rate : 76 b/s
Count of elements : 732
Stream size : 32.7 KiB (0%)
Title : Arabic
Language : Arabic
Default : No
Forced : No

Text #2
ID : 4
Format : UTF-8
Codec ID : S_TEXT/UTF8
Codec ID/Info : UTF-8 Plain Text
Duration : 58 min 36 s
Bit rate : 49 b/s
Count of elements : 732
Stream size : 21.4 KiB (0%)
Title : English
Language : English
Default : Yes
Forced : No

Text #3
ID : 5
Format : UTF-8
Codec ID : S_TEXT/UTF8
Codec ID/Info : UTF-8 Plain Text
Duration : 58 min 38 s
Bit rate : 53 b/s
Count of elements : 733
Stream size : 23.2 KiB (0%)
Title : French
Language : French
Default : No
Forced : No

Text #4
ID : 6
Format : UTF-8
Codec ID : S_TEXT/UTF8
Codec ID/Info : UTF-8 Plain Text
Duration : 58 min 38 s
Bit rate : 117 b/s
Count of elements : 733
Stream size : 50.3 KiB (0%)
Title : Thai
Language : Thai
Default : No
Forced : No

Text #5
ID : 7
Format : UTF-8
Codec ID : S_TEXT/UTF8
Codec ID/Info : UTF-8 Plain Text
Duration : 58 min 38 s
Bit rate : 47 b/s
Count of elements : 733
Stream size : 20.4 KiB (0%)
Title : Turkish
Language : Turkish
Default : No
Forced : No

Text #6
ID : 8
Format : UTF-8
Codec ID : S_TEXT/UTF8
Codec ID/Info : UTF-8 Plain Text
Duration : 58 min 38 s
Bit rate : 43 b/s
Count of elements : 733
Stream size : 18.8 KiB (0%)
Title : Simplified Chinese
Language : Chinese
Default : No
Forced : No

Text #7
ID : 9
Format : UTF-8
Codec ID : S_TEXT/UTF8
Codec ID/Info : UTF-8 Plain Text
Duration : 58 min 38 s
Bit rate : 46 b/s
Count of elements : 736
Stream size : 20.0 KiB (0%)
Title : Traditional Chinese
Language : Chinese
Default : No
Forced : No


31.88 GB
http://www.filecondo.com/dl.php?f=s611371HLz9u