+ Reply to Thread
Results 1 to 2 of 2
  1. #1
    Administrators Duckload.us's Avatar
    Join Date
    Dec 2010
    Posts
    105,316
    Thanks
    9
    Thanked 108,899 Times in 51,121 Posts

    Question (ฝรั่ง.ใหม่.พากย์ไทยมาสเตอร์)-THE WEDDING GUEST (2018) วิวาห์เดือด Super HQ[1080p.BRX264][Sound:Eng DTS 5.1 /Thai AC3 5.1:MASTER][✏SUB:Eng*SRT*✏]

    [IMG][/IMG]

    *** THE WEDDING GUEST (2018) วิวาห์เดือด ***


    • Dev Patel รับบทเป็นมุสลิมอังกฤษที่ถูกส่งไปยังปากีสถานเพื่อลั กพาตัวเจ้าสาว


    The Wedding Guest (2018)
    R | 1h 36min | Thriller | 19 July 2019 (UK) •• :IMDb:5.4/ 10
    Director: Michael Winterbottom
    Writer: Michael Winterbottom
    Stars: Dev Patel, Radhika Apte, Jim Sarbh

    ••• ไฟล์ 1080p คุณภาพสูง! •••
    ••• บรรยาย:อังกฤษ SRT! •••
    (ซับ SRT สามารถเปลี่ยนแปลงอักษรบรรยายได้ตามที่ต้องการ สี/ขนาด/ตำแหน่ง/ลักษณะ-และอี่นๆ ซึ่งซับโดยทั่วไปทำไม่ได้เช่นpgs-vob sub ที่มาจาก DVDหรือ Bluray)
    เสียง ไทย From Master.

    บุคคลลึกลับ (Dev Patel รับบทเป็นมุสลิมอังกฤษ) ได้รับการว่าจ้างให้เดินทางไปปากีสถานในฐานะแขกของงา นแต่งงานเพื่อลักพาตัวเจ้าสาว แต่การลงมือจัดการไม่เรียบร้อยเขาพลั้งมือฆ่ายามตายท ำให้เป็นข่าวในหน้าหนังสือพิมพ์และสื่ออินเตอร์เน็ตท ำให้ผู้ว่าจ้างไม่พอใจและไม่ต้องการเจ้าสาวอีกแล้ว เรื่องราวของหนังค่อนข้างซับซ้อน

    Format : Matroska
    Format version : Version 4
    File size : 4.22 GiB
    Duration : 1 h 36 min
    Overall bit rate : 6 262 kb/s
    Movie name : The.Wedding.Guest.2018.1080p.WEBRip.x264-[Super HQ][email protected] CUP

    Video
    ID : 1
    Format : AVC
    Format/Info : Advanced Video Codec
    Format profile : [email protected]
    Format settings : CABAC / 1 Ref Frames
    Format settings, CABAC : Yes
    Format settings, Reference : 1 frame
    Format settings, GOP : M=1, N=25
    Codec ID : V_MPEG4/ISO/AVC
    Duration : 1 h 36 min
    Bit rate mode : Constant
    Bit rate : 3 800 kb/s
    Width : 1 920 pixels
    Height : 784 pixels
    Display aspect ratio : 2.40:1
    Frame rate mode : Constant
    Frame rate : 29.970 (30000/1001) FPS
    Color space : YUV
    Chroma subsampling : 4:2:0
    Bit depth : 8 bits
    Scan type : Progressive
    Bits/(Pixel*Frame) : 0.084
    Stream size : 2.56 GiB (61%)
    Title : The.Wedding.Guest.2018.1080p.WEBRip.x264-[Super HQ][email protected] CUP
    Language : English
    Default : Yes
    Forced : No

    Audio #1
    ID : 2
    Format : AC-3
    Format/Info : Audio Coding 3
    Commercial name : Dolby Digital
    Codec ID : A_AC3
    Duration : 1 h 36 min
    Bit rate mode : Constant
    Bit rate : 640 kb/s
    Channel(s) : 6 channels
    Channel layout : L R C LFE Ls Rs
    Sampling rate : 44.1 kHz
    Frame rate : 28.711 FPS (1536 SPF)
    Bit depth : 16 bits
    Compression mode : Lossy
    Stream size : 442 MiB (10%)
    Title : 5.1 AC3-Thai 640k 441m
    Language : Thai
    Service kind : Complete Main
    Default : Yes
    Forced : No

    Audio #2
    ID : 3
    Format : DTS
    Format/Info : Digital Theater Systems
    Codec ID : A_DTS
    Duration : 1 h 36 min
    Bit rate mode : Constant
    Bit rate : 1 823 kb/s
    Channel(s) : 6 channels
    Channel layout : C L R Ls Rs LFE
    Sampling rate : 22.05 kHz
    Frame rate : 21.533 FPS (1024 SPF)
    Bit depth : 16 bits
    Compression mode : Lossy
    Stream size : 1.23 GiB (29%)
    Title : dts 5.1-Eng 22050-1.22g
    Language : English
    Default : No
    Forced : No

    Text #1
    ID : 4
    Format : UTF-8
    Codec ID : S_TEXT/UTF8
    Codec ID/Info : UTF-8 Plain Text
    Duration : 1 h 28 min
    Bit rate : 33 b/s
    Count of elements : 818
    Stream size : 21.4 KiB (0%)
    Title : SRT
    Language : English
    Default : Yes
    Forced : No

    Text #2
    ID : 5
    Format : UTF-8
    Codec ID : S_TEXT/UTF8
    Codec ID/Info : UTF-8 Plain Text
    Duration : 1 h 32 min
    Bit rate : 37 b/s
    Count of elements : 956
    Stream size : 25.4 KiB (0%)
    Title : SRT-Hearing Impaired=ผู้บกพร่องทางเสียง
    Language : English
    Default : No
    Forced : No





    Download: cornfile
    http://cornfile.com/amvx6too36do
    Download: mekafile
    http://www.mekafile.com/dl.php?f=mZ8ff2bWwTqj

  2. The Following 5 Users Say Thank You to Duckload.us For This Useful Post:

    amorn wichian (07-16-2019), apichartdear (07-16-2019), NaiWan (08-13-2019), noi54 (07-20-2019), Wesker_TOT (07-16-2019)

  3. #2
    Senior Member
    Join Date
    Dec 2013
    Posts
    1,717
    Thanks
    3,674
    Thanked 0 Times in 0 Posts
    ขอบคุณครับ...

+ Reply to Thread

Thread Information

Users Browsing this Thread

There are currently 1 users browsing this thread. (0 members and 1 guests)

     

Posting Permissions

  • You may not post new threads
  • You may not post replies
  • You may not post attachments
  • You may not edit your posts