+ Reply to Thread
Results 1 to 3 of 3
  1. #1
    Administrators Duckload.us's Avatar
    Join Date
    Dec 2010
    Posts
    105,315
    Thanks
    9
    Thanked 108,862 Times in 51,106 Posts

    Question Alita : Battle Angel (2019)+IMAX : อลิตา แบทเทิล แองเจิ้ล | พากย์ไทย(5.1):บรรยายไทย [พากย์:ไทย / English][SUB:ไทย / English][1080p] สิ้นสุดการลอยคอ (เสียงไทย 5.1 จาก 4K Blu-ray)



    Alita:Battle Angle : อลิต้า แบทเทิ้ลแองเจิ้ล

    Alita: Battle Angel ว่าด้วยเรื่องราวของ อลิตา ไซบอร์กสาวที่จะต้องออกผจญภัยเพื่อค้นหาว่า
    ตัวตนที่แท้จริงของตัวเอง พร้อมกับการต่อสู้เพื่อเปลี่ยนแปลงให้โลกใบนี้

    หนังเริ่มต้นที่ตัวเอกของเรื่อง อลิตา ไซบอร์กสาว ได้ตื่นขึ้นมาจากการดูแลของ ดอกเตอร์ ไดสัน อิโดะ รับบทโดย
    คริสตอฟ วอลต์ซ (Christoph Waltz) เธอจดจำอดีตไม่ได้ ผู้ชมจะได้เรียนรู้เรื่องราวทั้งในอดีต
    และปัจจุบันไปพร้อมกับตัวละครสาว

    ตัวหนังเล่าได้อย่างมีจังหวะจะโคนไม่รีบเร่งจนเกินไป และไม่ช้าจนรู้สึกเบื่อหน่าย ซึ่งใครที่ไม่เคยติดตามเรื่องราว
    ฉบับคอมิกส์มาก่อนนั้นก็สามารถสนุกสนานไปกับเรื่องรา วอันน่าตื่นเต้นของหนังผ่านอลิตาได้ตลอดทั้งเรื่อง

    Alita.Battle.Angel.2019.BluRay.1080p.DTS-ES.x264-RKN

    Length: 02:01:57 (h:m:s)

    VIDEO:

    Codec Bitrate Des--cription
    ----- ------- -----------
    Advance Video Codec | 2796 kbps | 1920x804 | 23.976 fps | 2.40:1 | [email protected]@Main / 4:2:0 / 8 bits / BT.709

    AUDIO:

    Codec Language Bitrate Des--cription
    ----- -------- ------- -----------
    DTS-ES Audio | English | 1509 kbps | 5.1 | 48 kHz | 24 bits |
    Dolby Digital Audio | Thai | 448 kbps | 5.1 | 48 kHz | 16 bits

    SUBTITLES:

    Codec Language
    ----- --------
    Presentation Graphics Thai
    Text(SRT) Thai
    Text(SRT) English





    Code:
    ระบบภาพ IMAX ทั้งเรื่อง
    ระบบเสียง ไทย อังกฤษ 5.1
    
    General
    Unique ID                      : 56773090779889566516907446947675043688 (0x2AB6197C8E9DB3062F888F5F14FEF768)
    Complete name                  : Alita Battle Angel (Thai5.1 IMAX full).mkv
    Format                         : Matroska
    Format version                 : Version 4 / Version 2
    File size                      : 4.62 GiB
    Duration                       : 2 h 2 min
    Overall bit rate               : 5 413 kb/s
    Movie name                     : Alita Battle Angel (2019)
    Encoded date                   : UTC 2019-07-15 20:04:36
    Writing application            : mkvmerge v33.1.0 ('Primrose') 64-bit
    Writing library                : libebml v1.3.7 + libmatroska v1.5.0
    Cover                          : Yes
    Attachments                    : Cover.png
    
    Video
    ID                             : 1
    Format                         : AVC
    Format/Info                    : Advanced Video Codec
    Format profile                 : [email protected]
    Format settings                : CABAC / 4 Ref Frames
    Format settings, CABAC         : Yes
    Format settings, ReFrames      : 4 frames
    Codec ID                       : V_MPEG4/ISO/AVC
    Duration                       : 2 h 2 min
    Bit rate                       : 4 570 kb/s
    Width                          : 1 920 pixels
    Height                         : 1 080 pixels
    Display aspect ratio           : 16:9
    Frame rate mode                : Constant
    Frame rate                     : 23.976 (24000/1001) FPS
    Color space                    : YUV
    Chroma subsampling             : 4:2:0
    Bit depth                      : 8 bits
    Scan type                      : Progressive
    Bits/(Pixel*Frame)             : 0.092
    Stream size                    : 3.84 GiB (83%)
    Title                          : Alita Battle Angel
    Writing library                : x264 core 148 r2597M e86f3a1
    Encoding settings              : cabac=1 / ref=3 / deblock=1:-3:-3 / analyse=0x3:0x113 / me=hex / subme=7 / psy=1 / psy_rd=1.00:0.20 / mixed_ref=1 / me_range=16 / chroma_me=1 / trellis=1 / 8x8dct=1 / cqm=0 / deadzone=21,11 / fast_pskip=1 / chroma_qp_offset=-3 / threads=10 / lookahead_threads=1 / sliced_threads=0 / nr=0 / decimate=1 / interlaced=0 / bluray_compat=0 / constrained_intra=0 / bframes=3 / b_pyramid=2 / b_adapt=2 / b_bias=0 / direct=3 / weightb=1 / open_gop=0 / weightp=2 / keyint=230 / keyint_min=23 / scenecut=40 / intra_refresh=0 / rc_lookahead=40 / rc=cbr / mbtree=1 / bitrate=4570 / ratetol=1.0 / qcomp=0.60 / qpmin=0 / qpmax=69 / qpstep=4 / vbv_maxrate=4570 / vbv_bufsize=30000 / nal_hrd=none / filler=0 / ip_ratio=1.40 / aq=1:1.00
    Language                       : English
    Default                        : Yes
    Forced                         : No
    Color range                    : Limited
    Color primaries                : BT.709
    Transfer characteristics       : BT.709
    Matrix coefficients            : BT.709
    
    Audio #1
    ID                             : 2
    Format                         : AC-3
    Format/Info                    : Audio Coding 3
    Codec ID                       : A_AC3
    Duration                       : 2 h 1 min
    Bit rate mode                  : Constant
    Bit rate                       : 448 kb/s
    Channel(s)                     : 6 channels
    Channel positions              : Front: L C R, Side: L R, LFE
    Sampling rate                  : 48.0 kHz
    Frame rate                     : 31.250 FPS (1536 SPF)
    Bit depth                      : 16 bits
    Compression mode               : Lossy
    Stream size                    : 391 MiB (8%)
    Title                          : Thai AC3 5.1ch 448kbps
    Language                       : Thai
    Service kind                   : Complete Main
    Default                        : No
    Forced                         : No
    
    Audio #2
    ID                             : 3
    Format                         : AC-3
    Format/Info                    : Audio Coding 3
    Codec ID                       : A_AC3
    Duration                       : 2 h 1 min
    Bit rate mode                  : Constant
    Bit rate                       : 448 kb/s
    Channel(s)                     : 6 channels
    Channel positions              : Front: L C R, Side: L R, LFE
    Sampling rate                  : 48.0 kHz
    Frame rate                     : 31.250 FPS (1536 SPF)
    Bit depth                      : 16 bits
    Compression mode               : Lossy
    Stream size                    : 391 MiB (8%)
    Title                          : English AC3 5.1ch 448kbps
    Language                       : English
    Service kind                   : Complete Main
    Default                        : Yes
    Forced                         : No
    
    Text #1
    ID                             : 4
    Format                         : VobSub
    Muxing mode                    : zlib
    Codec ID                       : S_VOBSUB
    Codec ID/Info                  : Picture based subtitle format used on DVDs
    Duration                       : 2 h 1 min
    Bit rate                       : 5 511 b/s
    Count of elements              : 1261
    Stream size                    : 4.79 MiB (0%)
    Title                          : Thai 1080p
    Language                       : Thai
    Default                        : No
    Forced                         : No
    
    Text #2
    ID                             : 5
    Format                         : PGS
    Muxing mode                    : zlib
    Codec ID                       : S_HDMV/PGS
    Codec ID/Info                  : Picture based subtitle format used on BDs/HD-DVDs
    Duration                       : 2 h 1 min
    Bit rate                       : 21.2 kb/s
    Count of elements              : 2522
    Stream size                    : 18.4 MiB (0%)
    Title                          : Thai PGS
    Language                       : Thai
    Default                        : No
    Forced                         : Yes
    
    Text #3
    ID                             : 6
    Format                         : UTF-8
    Codec ID                       : S_TEXT/UTF8
    Codec ID/Info                  : UTF-8 Plain Text
    Duration                       : 2 h 1 min
    Bit rate                       : 86 b/s
    Count of elements              : 1261
    Stream size                    : 77.3 KiB (0%)
    Title                          : Thai SRT
    Language                       : Thai
    Default                        : No
    Forced                         : No
    
    Text #4
    ID                             : 7
    Format                         : UTF-8
    Codec ID                       : S_TEXT/UTF8
    Codec ID/Info                  : UTF-8 Plain Text
    Duration                       : 1 h 55 min
    Bit rate                       : 41 b/s
    Count of elements              : 1347
    Stream size                    : 34.9 KiB (0%)
    Title                          : English SRT
    Language                       : English
    Default                        : Yes
    Forced                         : No
    
    Text #5
    ID                             : 8
    Format                         : UTF-8
    Codec ID                       : S_TEXT/UTF8
    Codec ID/Info                  : UTF-8 Plain Text
    Duration                       : 1 h 55 min
    Bit rate                       : 46 b/s
    Count of elements              : 1588
    Stream size                    : 39.4 KiB (0%)
    Title                          : English SRT
    Language                       : English
    Default                        : No
    Forced                         : No


    Alita.Battle.Angel.2019.BluRay.1080p.DTS-ES.x264-Thai.5.1.mkv
    Download: cornfile
    http://cornfile.com/5lmio39qk599
    Download: mekafile
    http://www.mekafile.com/dl.php?f=s1d95fbWzntm

    Alita Battle Angel IMAX Thai 5.1.mkv
    ระบบภาพ IMAX ทั้งเรื่อง
    ระบบเสียง ไทย5.1 อังกฤษ 5.1
    Download: cornfile
    http://cornfile.com/msb2zi8dl24p
    Download: mekafile
    http://www.mekafile.com/dl.php?f=xo4379bWzpMp

  2. The Following 3 Users Say Thank You to Duckload.us For This Useful Post:

    gaszolineskywalker (07-20-2019), NaiWan (08-09-2019), smakha (07-17-2019)

  3. #2
    Senior Member
    Join Date
    Oct 2012
    Posts
    643
    Thanks
    1,584
    Thanked 0 Times in 0 Posts
    ขอบคุณครับ

  4. #3
    Junior Member
    Join Date
    Aug 2019
    Posts
    5
    Thanks
    0
    Thanked 0 Times in 0 Posts
    ขอบคุณครับ

+ Reply to Thread

Thread Information

Users Browsing this Thread

There are currently 1 users browsing this thread. (0 members and 1 guests)

     

Posting Permissions

  • You may not post new threads
  • You may not post replies
  • You may not post attachments
  • You may not edit your posts