+ Reply to Thread
Results 1 to 2 of 2
  1. #1
    Administrators Duckload.us's Avatar
    Join Date
    Dec 2010
    Posts
    105,316
    Thanks
    9
    Thanked 108,924 Times in 51,129 Posts

    Question [ฝรั่ง]-ใหม่ภาพ Full HD!!!*** The Curse of La Llorona -- คำสาปมรณะจากหญิงร่ำไห้ *** จัดครบทั้งเสียงไทย เสียงอังกฤษ AC-3 โดย ดีเจ อาท-WEB-DL.H.264.1080p. [Modified]-[พากย์ไทยโรง]



    ภาพยนตร์ สุดสะพรึงครั้งใหม่ในจักรวาลคนเรียกผี The Conjuring ของผู้อำนวยการสร้าง James Wan ที่ได้แรงบันดาลใจจากตำนานพื้นบ้านในหมู่ชาวละติน-อเมริกัน
    วิญญาณร้าย เธอติดอยู่ในโชคชะตาอันเลวร้ายที่เกิดขึ้นจากน้ำมือข องตนเอง คำกล่าวขานเรื่องราวของเธอโด่งดังทั่วโลกมายาวนาน!

    The Curse of the Weeping Woman เรื่องราว ลาโยโรนา หญิงร่ำไห้ วิญญาณร้าย เธอติดอยู่ในโชคชะตาอันเลวร้ายที่เกิดขึ้นจากน้ำมือข องตนเอง คำกล่าวขานเรื่องราวของเธอโด่งดังทั่วโลกมายาวนาน เมื่อยามมีชีวิต เธอกดลูกตัวเองจมน้ำจากความโกรธแค้น และกระโดดลงสู่สายน้ำอันปั่นป่วนขณะร่ำไห้อย่างเจ็บป วด ยามนี้ เธอร่ำไห้นิรันดร และหากใครที่ได้ยินเสียงเพรียกแห่งความตายยามค่ำคืนข องเธอต้องพบจุดจบ เธอคืบคลานในความมืด เรียกร้องหาเด็ก ๆ เพื่อนำมาแทนที่ลูกของตน ยิ่งเวลาผ่านไปนับศตวรรษ ความปรารถนาของเธอกลับยิ่งเพิ่มมากขึ้น รุนแรงยิ่งขึ้น และวิธีการของเธอก็น่ากลัวยิ่งขึ้นทุกที

    ปี 1970 ที่ลอสแองเจลิส ลาโยโรนา แฝงกายในความมืด ติดตามเด็กชายที่ไม่สนใจฟังคำเตือนอันน่าขนลุกของนัก สังคมสงเคราะห์สาวผู้เป็นมารดา ที่คาดว่าลูกของตนกำลังอยู่ในอันตราย ไม่ช้าเธอและลูกของเธอก็ถูกดึงเข้าสู่ดินแดนเหนือธรร มชาติสุดสะพรึง ซึ่งเธอคิดว่า ความหวังเพียงหนึ่งเดียวของพวกเธอที่จะรอดจากความแค้ นของ La Llorona อาจเป็นนักบวชผู้ไม่แยแสโลกและฝึกฝนเวทมนตร์เพื่อรับ มือปีศาจนั่นเอง!!

    Format : Matroska
    Format version : Version 4 / Version 2
    File size : 3.38 GiB
    Duration : 1 h 33 min
    Overall bit rate : 5 195 kb/s
    Movie name : EVO
    Encoded date : UTC 2019-07-16 21:34:05
    Writing application : mkvmerge v35.0.0 ('All The Love In The World') 64-bit
    Writing library : libebml v1.3.9 + libmatroska v1.5.2

    Video
    ID : 3
    Format : AVC
    Format/Info : Advanced Video Codec
    Format profile : [email protected]
    Format settings : CABAC / 5 Ref Frames
    Format settings, CABAC : Yes
    Format settings, ReFrames : 5 frames
    Codec ID : V_MPEG4/ISO/AVC
    Duration : 1 h 33 min
    Bit rate : 4 584 kb/s
    Width : 1 920 pixels
    Height : 804 pixels
    Display aspect ratio : 2.40:1
    Frame rate mode : Constant
    Frame rate : 23.976 FPS
    Color space : YUV
    Chroma subsampling : 4:2:0
    Bit depth : 8 bits
    Scan type : Progressive
    Bits/(Pixel*Frame) : 0.124
    Stream size : 2.98 GiB (88%)
    Language : English
    Default : Yes
    Forced : No
    Color range : Limited
    Color primaries : BT.709
    Transfer characteristics : BT.709
    Matrix coefficients : BT.709

    Audio #1
    ID : 1
    Format : AAC
    Format/Info : Advanced Audio Codec
    Format profile : LC
    Codec ID : A_AAC-2
    Duration : 1 h 33 min
    Bit rate : 225 kb/s
    Channel(s) : 2 channels
    Channel positions : Front: L R
    Sampling rate : 48.0 kHz
    Frame rate : 46.875 FPS (1024 SPF)
    Compression mode : Lossy
    Stream size : 150 MiB (4%)
    Title : เสียงไทย
    Language : Thai
    Default : Yes
    Forced : Yes

    Audio #2
    ID : 2
    Format : AC-3
    Format/Info : Audio Coding 3
    Codec ID : A_AC3
    Duration : 1 h 33 min
    Bit rate mode : Constant
    Bit rate : 384 kb/s
    Channel(s) : 6 channels
    Channel positions : Front: L C R, Side: L R, LFE
    Sampling rate : 48.0 kHz
    Frame rate : 31.250 FPS (1536 SPF)
    Bit depth : 16 bits
    Compression mode : Lossy
    Stream size : 256 MiB (7%)
    Language : English
    Service kind : Complete Main
    Default : No
    Forced : No

    Menu
    00:00:00.000 : en:1
    00:09:24.000 : en:2
    00:18:21.000 : en:3
    00:28:09.000 : en:4
    00:38:14.000 : en:5
    00:48:09.000 : en:6
    00:58:07.000 : en:7
    01:09:04.000 : en:8
    01:18:15.000 : en:9
    01:26:29.000 : en:10






    Download: cornfile
    http://cornfile.com/5vjo54ylo471
    Download: mekafile
    http://www.mekafile.com/dl.php?f=fDcfcbbWBWyH

  2. The Following User Says Thank You to Duckload.us For This Useful Post:

    Sherlock (07-20-2019)

  3. #2
    Senior Member
    Join Date
    Jun 2014
    Posts
    759
    Thanks
    0
    Thanked 0 Times in 0 Posts
    ขอบคุณครับ

+ Reply to Thread

Thread Information

Users Browsing this Thread

There are currently 1 users browsing this thread. (0 members and 1 guests)

     

Posting Permissions

  • You may not post new threads
  • You may not post replies
  • You may not post attachments
  • You may not edit your posts