คู่รักหนุ่มสาวคู่หนึ่งได้ซื้อบ้านบนที่ดินจำนวนหลาย เอเคอร์ และพวกเขาต้องการหาคำตอบว่า ทำไมเจ้าของบ้านคนก่อนต้องการที่จะขายบ้านหลังนี้ ...

ความยาว:
102 mins
วันที่ออกฉาย:
3rd May 2019
ประเภท:
DramaMysteryThrillerHorror
นักแสดง:
Dennis QuaidMeagan GoodJoseph SikoraMichael EalyLili SepeDebs HowardAlvina AugustLee ShortenCarolyn Anderson

Video
ID : 1
Format : AVC
Format/Info : Advanced Video Codec
Format profile : [email protected]
Format settings : CABAC / 5 Ref Frames
Format settings, CABAC : Yes
Format settings, Reference frames : 5 frames
Codec ID : V_MPEG4/ISO/AVC
Duration : 1 h 42 min
Bit rate : 4 518 kb/s
Width : 1 920 pixels
Height : 790 pixels
Display aspect ratio : 2.40:1
Frame rate mode : Constant
Frame rate : 23.976 (24000/1001) FPS
Color space : YUV
Chroma subsampling : 4:2:0
Bit depth : 8 bits
Scan type : Progressive
Bits/(Pixel*Frame) : 0.124
Stream size : 3.22 GiB (91%)
Title : The.Intruder.2019
Language : English
Default : Yes
Forced : No
Color range : Limited
Color primaries : BT.709
Transfer characteristics : BT.709
Matrix coefficients : BT.709

Audio
ID : 2
Format : AC-3
Format/Info : Audio Coding 3
Commercial name : Dolby Digital
Codec ID : A_AC3
Duration : 1 h 42 min
Bit rate mode : Constant
Bit rate : 384 kb/s
Channel(s) : 6 channels
Channel layout : L R C LFE Ls Rs
Sampling rate : 48.0 kHz
Frame rate : 31.250 FPS (1536 SPF)
Bit depth : 16 bits
Compression mode : Lossy
Delay relative to video : -42 ms
Stream size : 280 MiB (8%)
Title : The.Intruder.2019
Language : English
Service kind : Complete Main
Default : Yes
Forced : No
Text #1
ID : 3
Format : PGS
Muxing mode : zlib
Codec ID : S_HDMV/PGS
Codec ID/Info : Picture based subtitle format used on BDs/HD-DVDs
Duration : 1 h 34 min
Bit rate : 50.2 kb/s
Count of elements : 2734
Stream size : 34.0 MiB (1%)
Title : AngsanaUPC
Language : Thai
Default : Yes
Forced : No

Text #2
ID : 4
Format : PGS
Muxing mode : zlib
Codec ID : S_HDMV/PGS
Codec ID/Info : Picture based subtitle format used on BDs/HD-DVDs
Duration : 1 h 34 min
Bit rate : 45.5 kb/s
Count of elements : 2734
Stream size : 30.8 MiB (1%)
Title : DilleniaUPC
Language : Thai
Default : No
Forced : No

Text #3
ID : 5
Format : PGS
Muxing mode : zlib
Codec ID : S_HDMV/PGS
Codec ID/Info : Picture based subtitle format used on BDs/HD-DVDs
Duration : 1 h 34 min
Bit rate : 44.7 kb/s
Count of elements : 2734
Stream size : 30.3 MiB (1%)
Title : Tahoma
Language : Thai
Default : No
Forced : No
Text #4
ID : 6
Format : UTF-8
Codec ID : S_TEXT/UTF8
Codec ID/Info : UTF-8 Plain Text
Duration : 1 h 34 min
Bit rate : 60 b/s
Count of elements : 1718
Stream size : 42.1 KiB (0%)
Language : English
Default : No
Forced : No





Download: cornfile
http://cornfile.com/yob1f9rymwtg
Download: mekafile
http://www.mekafile.com/dl.php?f=N46220bWBWZU