+ Reply to Thread
Results 1 to 4 of 4
  1. #1
    Administrators Duckload.us's Avatar
    Join Date
    Dec 2010
    Posts
    105,316
    Thanks
    9
    Thanked 108,925 Times in 51,129 Posts

    Question (ฝรั่ง.ใหม่.พากย์ไทยมาสเตอร์)-The World Is Yours (Le monde ou rien)[2018] หลบหน่อยแม่จะปล้น .Super HQ.[1080p.BRX264][Sound:Fre DTS 5.1 /Thai AC3 5.1:MASTER][✏SUB:Eng*SRT*✏]




    The World Is Yours (Le monde ou rien) [2018] หลบหน่อยแม่จะปล้น

    อาชญากรรมกะต๊องระดับคานส์ เสียดสีการเมืองโลกได้เจ็บแสบไปตามกัน

    The World Is Yours (Le monde ou rien)/Le monde est à toi (2018)
    1h 42min | Comedy, Crime | 15 August 2018 (France) •• :IMDb:6.4/ 10
    Director: Romain Gavras
    Writers: Karim Boukercha (adaptation), Karim Boukercha (screenplay)
    Stars: Karim Leklou, Isabelle Adjani, Vincent Cassel
    ••• ไฟล์ 1080p คุณภาพสูง! •••
    ••• บรรยาย:อังกฤษ SRT! •••
    (ซับ SRT สามารถเปลี่ยนแปลงอักษรบรรยายได้ตามที่ต้องการ สี/ขนาด/ตำแหน่ง/ลักษณะ-และอี่นๆ ซึ่งซับโดยทั่วไปทำไม่ได้เช่นpgs-vob sub ที่มาจาก DVDหรือ Bluray)
    เสียง ไทย From Master.

    ด้วยฝันอยากบุกเบิกธุรกิจไอติมในแอฟริใต้ ฟรังซัวร์ (คารีม เลอโคล) พ่อค้ายาลูกแหง่จำใจรับงานขนของล็อตใหญ่จากสเปนกลับม าที่ฝรั่งเศส แต่เรื่องราวโอละพ่อก็เกิดขึ้นเมื่อแก๊งค้ายาสก็อตแล นด์กลับเบี้ยวงานทิ้งให้เขาเผชิญความซวย และในโมงยามอันมืดแปดด้านความช่วยเหลือที่ฟรังซัวร์ต ้องการที่สุดคือ แดนนี (อิซาเบล อัดจานี) คุณแม่จอมบงการเปี่ยมสกิลโจรที่อาจช่วยให้เขาขโมยเงิ นที่ถูกเบี้ยวหรือในทางกลับกันเธออาจทำให้ชีวิตเขาปั ่นป่วนจนกู่ไม่กลับไปเลยก็ได้


    Format : Matroska
    Format version : Version 4
    File size : 4.49 GiB
    Duration : 1 h 40 min
    Overall bit rate : 6 431 kb/s
    Movie name : The.World.Is.Yours.2018.1080p.BluRay.-[Super HQ][email protected] CUP

    Video
    ID : 1
    Format : AVC
    Format/Info : Advanced Video Codec
    Format profile : [email protected]
    Format settings : CABAC / 1 Ref Frames
    Format settings, CABAC : Yes
    Format settings, Reference : 1 frame
    Format settings, GOP : M=1, N=25
    Codec ID : V_MPEG4/ISO/AVC
    Duration : 1 h 40 min
    Bit rate mode : Constant
    Bit rate : 4 800 kb/s
    Width : 1 920 pixels
    Height : 808 pixels
    Display aspect ratio : 2.40:1
    Frame rate mode : Constant
    Frame rate : 29.970 (30000/1001) FPS
    Color space : YUV
    Chroma subsampling : 4:2:0
    Bit depth : 8 bits
    Scan type : Progressive
    Bits/(Pixel*Frame) : 0.103
    Stream size : 3.35 GiB (75%)
    Title : The.World.Is.Yours.2018.1080p.BluRay.-[Super HQ][email protected] CUP
    Language : French
    Default : Yes
    Forced : No

    Audio #1
    ID : 2
    Format : AC-3
    Format/Info : Audio Coding 3
    Commercial name : Dolby Digital
    Codec ID : A_AC3
    Duration : 1 h 40 min
    Bit rate mode : Constant
    Bit rate : 640 kb/s
    Channel(s) : 6 channels
    Channel layout : L R C LFE Ls Rs
    Sampling rate : 44.1 kHz
    Frame rate : 28.711 FPS (1536 SPF)
    Bit depth : 16 bits
    Compression mode : Lossy
    Stream size : 458 MiB (10%)
    Title : 5.1 AC3-Thai 640k 457m
    Language : Thai
    Service kind : Complete Main
    Default : Yes
    Forced : No

    Audio #2
    ID : 3
    Format : DTS
    Format/Info : Digital Theater Systems
    Codec ID : A_DTS
    Duration : 1 h 40 min
    Bit rate mode : Constant
    Bit rate : 992 kb/s
    Channel(s) : 6 channels
    Channel layout : C L R Ls Rs LFE
    Sampling rate : 12.0 kHz
    Frame rate : 11.719 FPS (1024 SPF)
    Bit depth : 16 bits
    Compression mode : Lossy
    Stream size : 710 MiB (15%)
    Title : dts 5.1 French 12000-709m
    Language : French
    Default : No
    Forced : No

    Text
    ID : 4
    Format : UTF-8
    Codec ID : S_TEXT/UTF8
    Codec ID/Info : UTF-8 Plain Text
    Duration : 1 h 32 min
    Bit rate : 51 b/s
    Count of elements : 950
    Stream size : 34.6 KiB (0%)
    Title : SRT
    Language : French
    Default : Yes
    Forced : No





    Download: cornfile
    http://cornfile.com/fcm8wzauawkn
    Download: mekafile
    http://www.mekafile.com/dl.php?f=Rx84aabWEgsL

  2. The Following 3 Users Say Thank You to Duckload.us For This Useful Post:

    apichartdear (07-18-2019), gaszolineskywalker (07-20-2019), Tatum03 (07-18-2019)

  3. #2
    Senior Member
    Join Date
    Oct 2013
    Location
    Thailand
    Posts
    1,132
    Thanks
    1,008
    Thanked 0 Times in 0 Posts
    ขอบคุณมาก

  4. #3
    Senior Member
    Join Date
    Jul 2012
    Posts
    6,109
    Thanks
    0
    Thanked 0 Times in 0 Posts
    ขอบคุณมากจ้า

  5. #4
    Senior Member
    Join Date
    Oct 2012
    Posts
    648
    Thanks
    1,590
    Thanked 0 Times in 0 Posts
    ขอบคุณครับ

+ Reply to Thread

Thread Information

Users Browsing this Thread

There are currently 1 users browsing this thread. (0 members and 1 guests)

     

Posting Permissions

  • You may not post new threads
  • You may not post replies
  • You may not post attachments
  • You may not edit your posts