+ Reply to Thread
Results 1 to 2 of 2
  1. #1
    Administrators Duckload.us's Avatar
    Join Date
    Dec 2010
    Posts
    105,316
    Thanks
    9
    Thanked 108,924 Times in 51,129 Posts

    Question [ฝรั่ง]-[* ใหม่ร้อน ๆ *][ Mini-HD 1080p ] The World Is Yours (Le monde est à toi) (2018) หลบหน่อยแม่จะปล้น [พากย์ไทย 5.1 + English DTS]• [บรรยายไทย + อังกฤษ]-Blu-ray.DTS.1080p. [Modified]-[พากย์ไทย บรรยายไทย]




    ฟร็องซัวร์ (กาแร็ง เลอกลู) ทำงานเป็นพ่อค้ายามานานหลายปี เขาอยากหลุดพ้นจากอาชีพนี้แต่ก็ยังไม่มีโอกาสเหมาะ ๆ เสียที จนกระทั่งเขาทำข้อตกลงกับเจ้านายว่าจะรับงานขนยาครั้ งสุดท้ายที่สเปนแล้วเลิกอาชีพนี้อย่างถาวร แต่การทิ้งทวนของฟรองซัวร์เต็มไปด้วยอุปสรรคมากมาย เขาจึงจำเป็นต้องดึง แดนนี (อิซาแบล อัดจานี) ผู้เป็นแม่แท้ ๆ มาช่วย อย่างไรก็ตาม แม่ของเขาซึ่งควรจะช่วยให้สถานการณ์คลี่คลายโดยง่าย ก็ดันทำให้สถานการณ์ปั่นป่วนมากกว่าเดิมเสียอย่างนั้ น


    Format : MPEG-4
    Format profile : Base Media / Version 2
    Codec ID : mp42 (isom/iso2/avc1/mp41)
    File size : 4.91 GiB
    Duration : 1 h 40 min
    Overall bit rate : 7 032 kb/s
    Encoded date : UTC 2019-07-17 02:03:27
    Tagged date : UTC 2019-07-17 02:03:27
    Writing application : HandBrake 1.2.2 2019022300

    Video
    ID : 1
    Format : AVC
    Format/Info : Advanced Video Codec
    Format profile : [email protected]
    Format settings : CABAC / 4 Ref Frames
    Format settings, CABAC : Yes
    Format settings, ReFrames : 4 frames
    Codec ID : avc1
    Codec ID/Info : Advanced Video Coding
    Duration : 1 h 40 min
    Bit rate : 4 500 kb/s
    Width : 1 920 pixels
    Height : 802 pixels
    Display aspect ratio : 2.40:1
    Frame rate mode : Constant
    Frame rate : 24.000 FPS
    Color space : YUV
    Chroma subsampling : 4:2:0
    Bit depth : 8 bits
    Scan type : Progressive
    Bits/(Pixel*Frame) : 0.122
    Stream size : 3.10 GiB (63%)
    Writing library : x264 core 157 r2935 545de2f
    Encoding settings : cabac=1 / ref=3 / deblock=1:0:0 / analyse=0x3:0x113 / me=hex / subme=7 / psy=1 / psy_rd=1.00:0.00 / mixed_ref=1 / me_range=16 / chroma_me=1 / trellis=1 / 8x8dct=1 / cqm=0 / deadzone=21,11 / fast_pskip=1 / chroma_qp_offset=-2 / threads=12 / lookahead_threads=2 / sliced_threads=0 / nr=0 / decimate=1 / interlaced=0 / bluray_compat=0 / constrained_intra=0 / bframes=3 / b_pyramid=2 / b_adapt=1 / b_bias=0 / direct=1 / weightb=1 / open_gop=0 / weightp=2 / keyint=240 / keyint_min=24 / scenecut=40 / intra_refresh=0 / rc_lookahead=40 / rc=abr / mbtree=1 / bitrate=4500 / ratetol=1.0 / qcomp=0.60 / qpmin=0 / qpmax=69 / qpstep=4 / vbv_maxrate=62500 / vbv_bufsize=78125 / nal_hrd=none / filler=0 / ip_ratio=1.40 / aq=1:1.00
    Encoded date : UTC 2019-07-17 02:03:27
    Tagged date : UTC 2019-07-17 02:03:27
    Color range : Limited
    Color primaries : BT.709
    Transfer characteristics : BT.709
    Matrix coefficients : BT.709
    Codec configuration box : avcC

    Audio #1
    ID : 2
    Format : AAC LC
    Format/Info : Advanced Audio Codec Low Complexity
    Codec ID : mp4a-40-2
    Duration : 1 h 40 min
    Bit rate mode : Constant
    Bit rate : 449 kb/s
    Channel(s) : 6 channels
    Channel layout : C L R Ls Rs LFE
    Sampling rate : 48.0 kHz
    Frame rate : 46.875 FPS (1024 SPF)
    Compression mode : Lossy
    Stream size : 321 MiB (6%)
    Title : Surround
    Language : Thai
    Default : Yes
    Alternate group : 1
    Encoded date : UTC 2019-07-17 02:03:27
    Tagged date : UTC 2019-07-17 02:03:27
    Fallback From : 4

    Audio #2
    ID : 3
    Format : AAC LC
    Format/Info : Advanced Audio Codec Low Complexity
    Codec ID : mp4a-40-2
    Duration : 1 h 40 min
    Bit rate mode : Constant
    Bit rate : 446 kb/s
    Channel(s) : 6 channels
    Channel layout : C L R Ls Rs LFE
    Sampling rate : 48.0 kHz
    Frame rate : 46.875 FPS (1024 SPF)
    Compression mode : Lossy
    Stream size : 319 MiB (6%)
    Title : Surround
    Language : French
    Default : No
    Alternate group : 1
    Encoded date : UTC 2019-07-17 02:03:27
    Tagged date : UTC 2019-07-17 02:03:27
    Fallback From : 5,6

    Audio #3
    ID : 4
    Format : AC-3
    Format/Info : Audio Coding 3
    Commercial name : Dolby Digital
    Codec ID : ac-3
    Duration : 1 h 40 min
    Bit rate mode : Constant
    Bit rate : 448 kb/s
    Channel(s) : 6 channels
    Channel layout : L R C LFE Ls Rs
    Sampling rate : 48.0 kHz
    Frame rate : 31.250 FPS (1536 SPF)
    Bit depth : 16 bits
    Compression mode : Lossy
    Stream size : 321 MiB (6%)
    Title : Surround
    Language : Thai
    Service kind : Complete Main
    Default : Inherited From: 2
    Alternate group : 1
    Encoded date : UTC 2019-07-17 02:03:27
    Tagged date : UTC 2019-07-17 02:03:27
    Fallback To : 2

    Audio #4
    ID : 5
    Format : AC-3
    Format/Info : Audio Coding 3
    Commercial name : Dolby Digital
    Codec ID : ac-3
    Duration : 1 h 40 min
    Bit rate mode : Constant
    Bit rate : 448 kb/s
    Channel(s) : 6 channels
    Channel layout : L R C LFE Ls Rs
    Sampling rate : 48.0 kHz
    Frame rate : 31.250 FPS (1536 SPF)
    Bit depth : 16 bits
    Compression mode : Lossy
    Stream size : 321 MiB (6%)
    Title : Surround
    Language : French
    Service kind : Complete Main
    Default : No
    Alternate group : 1
    Encoded date : UTC 2019-07-17 02:03:27
    Tagged date : UTC 2019-07-17 02:03:27
    Fallback To : 3

    Audio #5
    ID : 6
    Format : DTS
    Format/Info : Digital Theater Systems
    Codec ID : mp4a-A9
    Duration : 1 h 40 min
    Bit rate mode : Constant
    Bit rate : 768 kb/s
    Channel(s) : 6 channels
    Channel layout : C L R Ls Rs LFE
    Sampling rate : 48.0 kHz
    Frame rate : 93.750 FPS (512 SPF)
    Bit depth : 16 bits
    Compression mode : Lossy
    Stream size : 550 MiB (11%)
    Title : Surround
    Language : French
    Default : No
    Alternate group : 1
    Encoded date : UTC 2019-07-17 02:03:27
    Tagged date : UTC 2019-07-17 02:03:27
    Fallback To : 3

    Text #1
    ID : 7
    Format : VobSub
    Codec ID : mp4s-E0
    Codec ID/Info : The same subtitle format used on DVDs
    Duration : 1 h 33 min
    Bit rate mode : Constant
    Bit rate : 8 564 b/s
    Stream size : 5.72 MiB (0%)
    Language : Thai
    Default : Yes
    Forced : No
    Alternate group : 3
    Encoded date : UTC 2019-07-17 02:03:27
    Tagged date : UTC 2019-07-17 02:03:27

    Text #2
    ID : 8
    Format : VobSub
    Codec ID : mp4s-E0
    Codec ID/Info : The same subtitle format used on DVDs
    Duration : 1 h 33 min
    Bit rate mode : Constant
    Bit rate : 9 847 b/s
    Stream size : 6.57 MiB (0%)
    Language : English
    Default : No
    Forced : No
    Alternate group : 3
    Encoded date : UTC 2019-07-17 02:03:27
    Tagged date : UTC 2019-07-17 02:03:27





    mp4 4.9 GB
    http://cornfile.com/8f516tbvym0s
    http://www.mekafile.com/dl.php?f=zCed9ebWGtAu

    mkv 4.5 GB
    http://cornfile.com/fcm8wzauawkn
    http://www.mekafile.com/dl.php?f=Rx84aabWEgsL

  2. The Following User Says Thank You to Duckload.us For This Useful Post:

    noi54 (07-20-2019)

  3. #2
    Senior Member
    Join Date
    Jun 2014
    Posts
    759
    Thanks
    0
    Thanked 0 Times in 0 Posts
    ขอบคุณครับ

+ Reply to Thread

Thread Information

Users Browsing this Thread

There are currently 1 users browsing this thread. (0 members and 1 guests)

     

Posting Permissions

  • You may not post new threads
  • You may not post replies
  • You may not post attachments
  • You may not edit your posts