+ Reply to Thread
Results 1 to 4 of 4
  1. #1
    Administrators Duckload.us's Avatar
    Join Date
    Dec 2010
    Posts
    105,316
    Thanks
    9
    Thanked 108,899 Times in 51,121 Posts

    Question [ฝรั่ง]-ใหม่[ Mini-HD 1080p ] The House (2017) : เดอะ เฮาส์ เปลี่ยนบ้านให้เป็นบ่อน [พากย์ไทย มาสเตอร์ + English DTS] [บรรยายไทย + อังกฤษ] -Blu-ray.DTS.1080p. [Modified]-[พากย์ไทย บรรยายไทย]




    หลังจากที่สก๊อตต์ (วิล เฟอร์เรล) และเคท (เอมี โพเลอร์) ต้องสูญเสียเงินทุนการศึกษามหาวิทยาลัยของอเล็กซ์ ลูกสาวของพวกเขา พวกเขาทำทุกวิถีทางที่จะหาเงินคืนมาเพื่อให้ลูกสาวได ้ทำตามความฝันของเธอในการเข้าเรียนมหาวิทยาลัย ด้วยความช่วยเหลือจากเพื่อนบ้านชื่อแฟรงค์ (เจสัน แมนต์ซูคัส) พวกเขาตัดสินใจที่จะเปิดคาสิโนผิดกฎหมายขึ้นที่ชั้นใ ต้ดินของบ้านเพื่อน!!!


    Format : MPEG-4
    Format profile : Base Media / Version 2
    Codec ID : mp42 (isom/iso2/avc1/mp41)
    File size : 3.87 GiB
    Duration : 1 h 28 min
    Overall bit rate : 6 279 kb/s
    Encoded date : UTC 2019-07-19 05:44:53
    Tagged date : UTC 2019-07-19 05:44:53
    Writing application : HandBrake 1.2.2 2019022300

    Video
    ID : 1
    Format : AVC
    Format/Info : Advanced Video Codec
    Format profile : [email protected]
    Format settings : CABAC / 4 Ref Frames
    Format settings, CABAC : Yes
    Format settings, ReFrames : 4 frames
    Codec ID : avc1
    Codec ID/Info : Advanced Video Coding
    Duration : 1 h 28 min
    Bit rate : 4 500 kb/s
    Width : 1 920 pixels
    Height : 800 pixels
    Display aspect ratio : 2.40:1
    Frame rate mode : Variable
    Frame rate : 23.976 (24000/1001) FPS
    Minimum frame rate : 23.974 FPS
    Maximum frame rate : 23.981 FPS
    Color space : YUV
    Chroma subsampling : 4:2:0
    Bit depth : 8 bits
    Scan type : Progressive
    Bits/(Pixel*Frame) : 0.122
    Stream size : 2.70 GiB (70%)
    Writing library : x264 core 157 r2935 545de2f
    Encoding settings : cabac=1 / ref=3 / deblock=1:0:0 / analyse=0x3:0x113 / me=hex / subme=7 / psy=1 / psy_rd=1.00:0.00 / mixed_ref=1 / me_range=16 / chroma_me=1 / trellis=1 / 8x8dct=1 / cqm=0 / deadzone=21,11 / fast_pskip=1 / chroma_qp_offset=-2 / threads=12 / lookahead_threads=2 / sliced_threads=0 / nr=0 / decimate=1 / interlaced=0 / bluray_compat=0 / constrained_intra=0 / bframes=3 / b_pyramid=2 / b_adapt=1 / b_bias=0 / direct=1 / weightb=1 / open_gop=0 / weightp=2 / keyint=240 / keyint_min=24 / scenecut=40 / intra_refresh=0 / rc_lookahead=40 / rc=abr / mbtree=1 / bitrate=4500 / ratetol=1.0 / qcomp=0.60 / qpmin=0 / qpmax=69 / qpstep=4 / vbv_maxrate=62500 / vbv_bufsize=78125 / nal_hrd=none / filler=0 / ip_ratio=1.40 / aq=1:1.00
    Encoded date : UTC 2019-07-19 05:44:53
    Tagged date : UTC 2019-07-19 05:44:53
    Color range : Limited
    Color primaries : BT.709
    Transfer characteristics : BT.709
    Matrix coefficients : BT.709
    Codec configuration box : avcC

    Audio #1
    ID : 2
    Format : AAC LC
    Format/Info : Advanced Audio Codec Low Complexity
    Codec ID : mp4a-40-2
    Duration : 1 h 28 min
    Bit rate mode : Constant
    Bit rate : 192 kb/s
    Channel(s) : 2 channels
    Channel layout : L R
    Sampling rate : 48.0 kHz
    Frame rate : 46.875 FPS (1024 SPF)
    Compression mode : Lossy
    Stream size : 122 MiB (3%)
    Title : Stereo
    Language : Thai
    Default : Yes
    Alternate group : 1
    Encoded date : UTC 2019-07-19 05:44:53
    Tagged date : UTC 2019-07-19 05:44:53

    Audio #2
    ID : 3
    Format : AAC LC
    Format/Info : Advanced Audio Codec Low Complexity
    Codec ID : mp4a-40-2
    Duration : 1 h 28 min
    Bit rate mode : Constant
    Bit rate : 448 kb/s
    Channel(s) : 6 channels
    Channel layout : C L R Ls Rs LFE
    Sampling rate : 48.0 kHz
    Frame rate : 46.875 FPS (1024 SPF)
    Compression mode : Lossy
    Stream size : 283 MiB (7%)
    Title : Surround
    Language : English
    Default : No
    Alternate group : 1
    Encoded date : UTC 2019-07-19 05:44:53
    Tagged date : UTC 2019-07-19 05:44:53
    Fallback From : 4,5

    Audio #3
    ID : 4
    Format : AC-3
    Format/Info : Audio Coding 3
    Commercial name : Dolby Digital
    Codec ID : ac-3
    Duration : 1 h 28 min
    Bit rate mode : Constant
    Bit rate : 448 kb/s
    Channel(s) : 6 channels
    Channel layout : L R C LFE Ls Rs
    Sampling rate : 48.0 kHz
    Frame rate : 31.250 FPS (1536 SPF)
    Bit depth : 16 bits
    Compression mode : Lossy
    Stream size : 282 MiB (7%)
    Title : Surround
    Language : English
    Service kind : Complete Main
    Default : No
    Alternate group : 1
    Encoded date : UTC 2019-07-19 05:44:53
    Tagged date : UTC 2019-07-19 05:44:53
    Fallback To : 3

    Audio #4
    ID : 5
    Format : DTS
    Format/Info : Digital Theater Systems
    Codec ID : mp4a-A9
    Duration : 1 h 28 min
    Bit rate mode : Constant
    Bit rate : 755 kb/s
    Channel(s) : 6 channels
    Channel layout : C L R Ls Rs LFE
    Sampling rate : 48.0 kHz
    Frame rate : 93.750 FPS (512 SPF)
    Bit depth : 24 bits
    Compression mode : Lossy
    Stream size : 476 MiB (12%)
    Title : Surround
    Language : English
    Default : No
    Alternate group : 1
    Encoded date : UTC 2019-07-19 05:44:53
    Tagged date : UTC 2019-07-19 05:44:53
    Fallback To : 3

    Text #1
    ID : 6
    Format : VobSub
    Codec ID : mp4s-E0
    Codec ID/Info : The same subtitle format used on DVDs
    Duration : 1 h 28 min
    Bit rate mode : Constant
    Bit rate : 12.1 kb/s
    Stream size : 7.62 MiB (0%)
    Language : Thai
    Default : Yes
    Forced : No
    Alternate group : 3
    Encoded date : UTC 2019-07-19 05:44:53
    Tagged date : UTC 2019-07-19 05:44:53

    Text #2
    ID : 7
    Format : VobSub
    Codec ID : mp4s-E0
    Codec ID/Info : The same subtitle format used on DVDs
    Duration : 1 h 28 min
    Bit rate mode : Constant
    Bit rate : 15.0 kb/s
    Stream size : 9.47 MiB (0%)
    Language : English
    Default : No
    Forced : No
    Alternate group : 3
    Encoded date : UTC 2019-07-19 05:44:53
    Tagged date : UTC 2019-07-19 05:44:53






    .m4v 3.9 GB
    http://cornfile.com/srmk3p8hkg4r
    http://www.mekafile.com/dl.php?f=Yy801dbWJaYd
    .mkv 4.4 GB
    http://cornfile.com/1jbfke7yk478
    http://www.mekafile.com/dl.php?f=LZ8a33bWJktN

  2. The Following 6 Users Say Thank You to Duckload.us For This Useful Post:

    apichartdear (07-21-2019), noi54 (07-20-2019), sawara (07-22-2019), smakha (07-22-2019), Tellmon (07-22-2019), Wesker_TOT (07-20-2019)

  3. #2
    Senior Member
    Join Date
    Dec 2013
    Posts
    1,717
    Thanks
    3,674
    Thanked 0 Times in 0 Posts
    ขอบคุณครับ...

  4. #3
    Senior Member
    Join Date
    Dec 2013
    Posts
    262
    Thanks
    181
    Thanked 0 Times in 0 Posts
    ขอบคุณครับ

  5. #4
    Senior Member
    Join Date
    Jun 2014
    Posts
    759
    Thanks
    0
    Thanked 0 Times in 0 Posts
    ขอบคุณครับ

+ Reply to Thread

Thread Information

Users Browsing this Thread

There are currently 1 users browsing this thread. (0 members and 1 guests)

     

Posting Permissions

  • You may not post new threads
  • You may not post replies
  • You may not post attachments
  • You may not edit your posts