+ Reply to Thread
Results 1 to 2 of 2
  1. #1
    Administrators Duckload.us's Avatar
    Join Date
    Dec 2010
    Posts
    106,224
    Thanks
    9
    Thanked 110,150 Times in 51,457 Posts

    Question [ฝรั่ง]-Hansel & Gretel: Witch Hunters (2013) ฮันเซล แอนด์ เกรเทล: นักล่าแม่มดพันธุ์ดิบ [พากย์ไทย 5.1 + English 5.1]• [บรรยายไทย + อังกฤษ]-4K Blu-ray.AC-3.2160p. [Modified]-[พากย์ไทย บรรยายไทย]




    เวลาล่วงเลยไปนาน 15 ปีหลังจากสองพี่น้อง ฮันเซล (เจเรมี่ เรนเนอร์) และเกรเทล (เจมม่า อาร์เทอร์ตัน) หลบหนีพ้นจากแม่มดที่ชอบจับตัวเด็ก และชีวิตพวกเขาเปลี่ยนแปลงไปตลอดกาล....เมื่อพวกเขาไ ด้ลิ้มรสชาติของเลือด บัดนี้ พวกเขาเติบโตและกลายเป็นนักล่าที่มีทักษะฝีมือ ดุดันเกรี้ยวกราด ผู้อุทิศทั้งชีวิตให้กับการติดตามและกำจัดแม่มดในป่า ลึกลับทุกแห่ง เพื่อเป็นการแก้แค้น และเมื่อจันทราสีเลือดใกล้ถึงเวลาปรากฏบนท้องฟ้า และเมืองชายป่าที่แสนคุ้นเคยต้องเผชิญกับฝันร้ายเมื่ อเด็กๆ ที่ไร้เดียงสาในหมู่บ้านหายตัวไป ฮันเซลและเกรเทลต้องเผชิญกับปีศาจที่ชั่วร้ายเกินกว่ าแม่มดทุกตนที่พวกเขาเคยตามล่ามา เป็นปีศาจร้ายที่กุมความลับจากอดีตที่แสนน่ากลัวของพ วกเขา

    Format : MPEG-4
    Format profile : Base Media / Version 2
    Codec ID : mp42 (mp42/isom/avc1)
    File size : 11.0 GiB
    Duration : 1 h 27 min
    Overall bit rate mode : Variable
    Overall bit rate : 17.9 Mb/s
    Movie name : Hansel.and.Gretel.Witch.Hunters.2013.2160p.BluRay. REMUX.HEVC.TrueHD.5.1-FGT (1)
    Encoded date : UTC 2018-10-08 04:44:30
    Tagged date : UTC 2018-10-08 06:51:59
    Writing application : DVDFab 10.2.1.6
    covr : Unknown kind of value!

    Video
    ID : 1
    Format : AVC
    Format/Info : Advanced Video Codec
    Format profile : [email protected]
    Format settings : CABAC / 2 Ref Frames
    Format settings, CABAC : Yes
    Format settings, ReFrames : 2 frames
    Format settings, GOP : M=1, N=24
    Codec ID : avc1
    Codec ID/Info : Advanced Video Coding
    Duration : 1 h 27 min
    Source duration : 1 h 27 min
    Bit rate mode : Variable
    Bit rate : 15.7 Mb/s
    Maximum bit rate : 24.0 Mb/s
    Width : 3 840 pixels
    Height : 2 160 pixels
    Display aspect ratio : 16:9
    Frame rate mode : Constant
    Frame rate : 23.976 (24000/1001) FPS
    Color space : YUV
    Chroma subsampling : 4:2:0
    Bit depth : 8 bits
    Scan type : Progressive
    Bits/(Pixel*Frame) : 0.079
    Stream size : 9.65 GiB (88%)
    Source stream size : 9.65 GiB (88%)
    Encoded date : UTC 2018-10-08 04:44:30
    Tagged date : UTC 2018-10-08 06:51:59
    Color primaries : BT.709
    Transfer characteristics : BT.709
    Matrix coefficients : BT.709
    Codec configuration box : avcC

    Audio #1
    ID : 2
    Format : AAC LC
    Format/Info : Advanced Audio Codec Low Complexity
    Codec ID : mp4a-40-2
    Duration : 1 h 27 min
    Bit rate mode : Variable
    Bit rate : 444 kb/s
    Maximum bit rate : 611 kb/s
    Channel(s) : 6 channels
    Channel layout : C L R Ls Rs LFE
    Sampling rate : 48.0 kHz
    Frame rate : 46.875 FPS (1024 SPF)
    Compression mode : Lossy
    Stream size : 279 MiB (2%)
    Title : Thai (aac 5.1)
    Language : Thai
    Default : Yes
    Alternate group : 1
    Encoded date : UTC 2018-10-08 04:44:30
    Tagged date : UTC 2018-10-08 06:51:54

    Audio #2
    ID : 3
    Format : AAC LC
    Format/Info : Advanced Audio Codec Low Complexity
    Codec ID : mp4a-40-2
    Duration : 1 h 27 min
    Bit rate mode : Variable
    Bit rate : 444 kb/s
    Maximum bit rate : 612 kb/s
    Channel(s) : 6 channels
    Channel layout : C L R Ls Rs LFE
    Sampling rate : 48.0 kHz
    Frame rate : 46.875 FPS (1024 SPF)
    Compression mode : Lossy
    Stream size : 279 MiB (2%)
    Title : English (aac 5.1)
    Language : English
    Default : No
    Alternate group : 1
    Encoded date : UTC 2018-10-08 04:44:30
    Tagged date : UTC 2018-10-08 06:51:54

    Audio #3
    ID : 4
    Format : AC-3
    Format/Info : Audio Coding 3
    Commercial name : Dolby Digital
    Codec ID : ac-3
    Duration : 1 h 27 min
    Bit rate mode : Constant
    Bit rate : 640 kb/s
    Channel(s) : 6 channels
    Channel layout : L R C LFE Ls Rs
    Sampling rate : 48.0 kHz
    Frame rate : 31.250 FPS (1536 SPF)
    Bit depth : 16 bits
    Compression mode : Lossy
    Stream size : 403 MiB (4%)
    Title : Thai (ac3 5.1)
    Language : Thai
    Service kind : Complete Main
    Default : No
    Alternate group : 1
    Encoded date : UTC 2018-10-08 04:44:30
    Tagged date : UTC 2018-10-08 06:51:54

    Audio #4
    ID : 5
    Format : AC-3
    Format/Info : Audio Coding 3
    Commercial name : Dolby Digital
    Codec ID : ac-3
    Duration : 1 h 27 min
    Bit rate mode : Constant
    Bit rate : 640 kb/s
    Channel(s) : 6 channels
    Channel layout : L R C LFE Ls Rs
    Sampling rate : 48.0 kHz
    Frame rate : 31.250 FPS (1536 SPF)
    Bit depth : 16 bits
    Compression mode : Lossy
    Stream size : 403 MiB (4%)
    Title : English (ac3 5.1)
    Language : English
    Service kind : Complete Main
    Default : No
    Alternate group : 1
    Encoded date : UTC 2018-10-08 04:44:30
    Tagged date : UTC 2018-10-08 06:51:54

    Text #1
    ID : 6
    Format : VobSub
    Codec ID : mp4s-E0
    Codec ID/Info : The same subtitle format used on DVDs
    Duration : 1 h 27 min
    Bit rate mode : Variable
    Bit rate : 3 707 b/s
    Maximum bit rate : 4 166 Mb/s
    Stream size : 2.33 MiB (0%)
    Language : Thai
    Default : Yes
    Forced : No
    Alternate group : 2
    Encoded date : UTC 2018-10-08 04:44:30
    Tagged date : UTC 2018-10-08 06:51:51

    Text #2
    ID : 7
    Format : VobSub
    Codec ID : mp4s-E0
    Codec ID/Info : The same subtitle format used on DVDs
    Duration : 1 h 21 min
    Bit rate mode : Variable
    Bit rate : 5 541 b/s
    Maximum bit rate : 4 277 Mb/s
    Stream size : 3.22 MiB (0%)
    Language : English
    Default : No
    Forced : No
    Alternate group : 2
    Encoded date : UTC 2018-10-08 04:44:30
    Tagged date : UTC 2018-10-08 06:42:03




    Download: cornfile
    http://cornfile.com/oxv0ztzgf9ns
    Download: mekafile
    http://www.mekafile.com/dl.php?f=Yna59abXaNoz

  2. #2
    Senior Member
    Join Date
    Jun 2012
    Posts
    1,189
    Thanks
    0
    Thanked 1 Time in 1 Post
    ขอบคุณครับ

+ Reply to Thread

Thread Information

Users Browsing this Thread

There are currently 1 users browsing this thread. (0 members and 1 guests)

     

Posting Permissions

  • You may not post new threads
  • You may not post replies
  • You may not post attachments
  • You may not edit your posts