+ Reply to Thread
Results 1 to 2 of 2
  1. #1
    Administrators Duckload.us's Avatar
    Join Date
    Dec 2010
    Posts
    105,520
    Thanks
    9
    Thanked 109,198 Times in 51,203 Posts

    Question [ฝรั่ง]-Warm Bodies (2013) ซอมบี้ที่รัก [พากย์ไทย 5.1 + English DTS-XLL]• [บรรยายไทย + อังกฤษ]-4K Blu-ray.DTS.2160p. [Modified]-[พากย์ไทย บรรยายไทย]



    ไม่ว่าใครก็สามารถตกหลุมรักได้ แม้กระทั่งซอมบี้ ตราบใดที่หัวใจของเขายังคงอยู่ในร่างกาย...Warm Bodies คือภาพยนตร์โรแมนติกระทึกขวัญฟอร์มยักษ์ที่สร้างมาจา กนิยายดัง ผลงานจากผู้กำกับ โจนาธาน เลวินแห่ง 50/50 ที่จะนำพาทุกท่านไปพบกับ เรื่องราวความรักเกินคาดเดา ระหว่างมนุษย์และซอมบี้สุดแหวกแนวพบการขึ้นจอของ 2 นักแสดงวัยรุ่นมาแรง นิโคลัส ฮอลท์ หนุ่มหน้าใสจาก a boy และล่าสุดแสดงใน X-men first classกับ เทเรซ่า ปาล์มเมอร์ แห่ง The Sorcerer’s Apprentice และ I Am NumberFour สมทบด้วย จอห์น มัลโควิช!!!


    Format : MPEG-4
    Format profile : Base Media / Version 2
    Codec ID : mp42 (isom/iso2/avc1/mp41)
    File size : 13.5 GiB
    Duration : 1 h 37 min
    Overall bit rate mode : Variable
    Overall bit rate : 19.8 Mb/s
    Encoded date : UTC 2018-01-21 02:20:45
    Tagged date : UTC 2018-01-21 02:20:45
    Writing application : HandBrake 1.0.3 2017022500

    Video
    ID : 1
    Format : AVC
    Format/Info : Advanced Video Codec
    Format profile : [email protected]
    Format settings : CABAC / 1 Ref Frames
    Format settings, CABAC : Yes
    Format settings, ReFrames : 1 frame
    Codec ID : avc1
    Codec ID/Info : Advanced Video Coding
    Duration : 1 h 37 min
    Bit rate : 15.0 Mb/s
    Width : 3 840 pixels
    Height : 1 600 pixels
    Display aspect ratio : 2.40:1
    Frame rate mode : Variable
    Frame rate : 23.976 (24000/1001) FPS
    Minimum frame rate : 23.974 FPS
    Maximum frame rate : 23.981 FPS
    Color space : YUV
    Chroma subsampling : 4:2:0
    Bit depth : 8 bits
    Scan type : Progressive
    Bits/(Pixel*Frame) : 0.102
    Stream size : 9.96 GiB (74%)
    Writing library : x264 core 148 r2708 86b7198
    Encoding settings : cabac=1 / ref=1 / deblock=1:0:0 / analyse=0x3:0x113 / me=hex / subme=2 / psy=1 / psy_rd=1.00:0.00 / mixed_ref=0 / me_range=16 / chroma_me=1 / trellis=0 / 8x8dct=1 / cqm=0 / deadzone=21,11 / fast_pskip=1 / chroma_qp_offset=0 / threads=6 / lookahead_threads=2 / sliced_threads=0 / nr=0 / decimate=1 / interlaced=0 / bluray_compat=0 / constrained_intra=0 / bframes=0 / weightp=1 / keyint=240 / keyint_min=24 / scenecut=40 / intra_refresh=0 / rc_lookahead=10 / rc=abr / mbtree=1 / bitrate=15000 / ratetol=1.0 / qcomp=0.60 / qpmin=0 / qpmax=69 / qpstep=4 / vbv_maxrate=62500 / vbv_bufsize=78125 / nal_hrd=none / filler=0 / ip_ratio=1.40 / aq=1:1.00
    Encoded date : UTC 2018-01-21 02:20:45
    Tagged date : UTC 2018-01-21 02:20:45
    Color range : Limited
    Color primaries : BT.2020
    Transfer characteristics : PQ
    Matrix coefficients : BT.2020 non-constant
    Codec configuration box : avcC

    Audio #1
    ID : 2
    Format : AAC LC
    Format/Info : Advanced Audio Codec Low Complexity
    Codec ID : mp4a-40-2
    Duration : 1 h 37 min
    Bit rate mode : Variable
    Bit rate : 384 kb/s
    Channel(s) : 6 channels
    Channel layout : C L R Ls Rs LFE
    Sampling rate : 48.0 kHz
    Frame rate : 46.875 FPS (1024 SPF)
    Compression mode : Lossy
    Stream size : 268 MiB (2%)
    Title : English AAC 5.1 / English AAC 5.1
    Language : English
    Default : Yes
    Alternate group : 1
    Encoded date : UTC 2018-01-21 02:20:45
    Tagged date : UTC 2018-01-21 02:20:45

    Audio #2
    ID : 3
    Format : AAC LC
    Format/Info : Advanced Audio Codec Low Complexity
    Codec ID : mp4a-40-2
    Duration : 1 h 37 min
    Bit rate mode : Variable
    Bit rate : 384 kb/s
    Channel(s) : 6 channels
    Channel layout : C L R Ls Rs LFE
    Sampling rate : 48.0 kHz
    Frame rate : 46.875 FPS (1024 SPF)
    Compression mode : Lossy
    Stream size : 269 MiB (2%)
    Title : Thai AAC 5.1 / Thai AAC 5.1
    Language : Thai
    Default : No
    Alternate group : 1
    Encoded date : UTC 2018-01-21 02:20:45
    Tagged date : UTC 2018-01-21 02:20:45
    Fallback From : 5

    Audio #3
    ID : 4
    Format : DTS XLL
    Format/Info : Digital Theater Systems
    Commercial name : DTS-HD Master Audio
    Codec ID : mp4a-A9
    Duration : 1 h 37 min
    Bit rate mode : Variable
    Bit rate : 3 947 kb/s
    Channel(s) : 8 channels
    Channel layout : C L R LFE Lb Rb Lss Rss
    Sampling rate : 48.0 kHz
    Frame rate : 93.750 FPS (512 SPF)
    Bit depth : 24 bits
    Compression mode : Lossless
    Stream size : 2.70 GiB (20%)
    Title : English DTS-HD MA 7.1 / English DTS-HD MA 7.1
    Language : English
    Default : No
    Alternate group : 1
    Encoded date : UTC 2018-01-21 02:20:45
    Tagged date : UTC 2018-01-21 02:20:45

    Audio #4
    ID : 5
    Format : AC-3
    Format/Info : Audio Coding 3
    Commercial name : Dolby Digital
    Codec ID : ac-3
    Duration : 1 h 37 min
    Bit rate mode : Constant
    Bit rate : 448 kb/s
    Channel(s) : 6 channels
    Channel layout : L R C LFE Ls Rs
    Sampling rate : 48.0 kHz
    Frame rate : 31.250 FPS (1536 SPF)
    Bit depth : 16 bits
    Compression mode : Lossy
    Stream size : 313 MiB (2%)
    Title : Thai AC3 5.1 / Thai AC3 5.1
    Language : Thai
    Service kind : Complete Main
    Default : No
    Alternate group : 1
    Encoded date : UTC 2018-01-21 02:20:45
    Tagged date : UTC 2018-01-21 02:20:45
    Fallback To : 3

    Text #1
    ID : 6
    Format : VobSub
    Codec ID : mp4s-E0
    Codec ID/Info : The same subtitle format used on DVDs
    Duration : 1 h 31 min
    Bit rate mode : Variable
    Bit rate : 6 116 b/s
    Stream size : 3.99 MiB (0%)
    Language : Thai
    Default : Yes
    Forced : No
    Alternate group : 3
    Encoded date : UTC 2018-01-21 02:20:45
    Tagged date : UTC 2018-01-21 02:20:45

    Text #2
    ID : 7
    Format : VobSub
    Codec ID : mp4s-E0
    Codec ID/Info : The same subtitle format used on DVDs
    Duration : 1 h 31 min
    Bit rate mode : Variable
    Bit rate : 6 799 b/s
    Stream size : 4.44 MiB (0%)
    Language : English
    Default : No
    Forced : No
    Alternate group : 3
    Encoded date : UTC 2018-01-21 02:20:45
    Tagged date : UTC 2018-01-21 02:20:45




    Download: cornfile
    http://cornfile.com/snbeucklixzl
    Download: mekafile
    http://www.mekafile.com/dl.php?f=7ga47dbXaVbz

  2. The Following User Says Thank You to Duckload.us For This Useful Post:

    Wesker_TOT (08-11-2019)

  3. #2
    Senior Member
    Join Date
    Dec 2013
    Posts
    1,728
    Thanks
    3,683
    Thanked 0 Times in 0 Posts
    ขอบคุณมากครับ...

+ Reply to Thread

Thread Information

Users Browsing this Thread

There are currently 1 users browsing this thread. (0 members and 1 guests)

     

Posting Permissions

  • You may not post new threads
  • You may not post replies
  • You may not post attachments
  • You may not edit your posts