+ Reply to Thread
Results 1 to 1 of 1
  1. #1
    Administrators Duckload.us's Avatar
    Join Date
    Dec 2010
    Posts
    105,520
    Thanks
    9
    Thanked 109,198 Times in 51,203 Posts

    Question [ฝรั่ง]-[* ใหม่ร้อนๆ!! *] The Boys (2019) : Complete Season 1 [เสียงอังกฤษ 5.1] [บรรยายไทย + อังกฤษ] [ซับไทย Master From Amazon + ซับ PGS คมชัด]-HDR.HEVC.2160p. [Modified]-[Soundtrack บรรยายไทย]



    เนื้อเรื่อง/เรื่องย่อ
    The Boys ว่าด้วยเรื่องราวของกลุ่มคนกลุ่มหนึ่งซึ่งประกอบไปด้ วย Billy Butcher (รับบทโดย Karl Urbban), Mother’s Milk (รับบทโดย Laz Alonso), the Female (of the Species) (รับบทโดย Karen Fukuhara), “Wee” Hughie Campbell (รับบทโดย Jack Quaid) และ the Frenchman (รับบทโดย Tomer Kapon) เป็นต้น พวกเขารวมตัวกันเพือคอยจับตา, ต่อต้านและหาทางแก้แค้นเหล่าซูเปอร์ฮีโร่ที่ใช้พลังอ ำนาจไปในทางที่ผิด โดยพวกเขาเหล่านั้นล้วนแล้วแต่เคยมีอดีตที่แสนเจ็บปว ดที่เกี่ยวข้องกับเหล่าซุปเปอร์ฮีโร่ที่เรียกตัวเองว ่า The Seven

    ซึ่งฉากหน้าของกลุ่ม The Seven นั้นเป็นวีรบุรุษผดุงคุณธรรมและช่วยเหลือเพื่อนมนุษย ์ แต่เบื้องหลังนั้นเต็มไปด้วยการคอรัปชั่น และใช้อำนาจพิเศษไปในทางที่ผิด โดยกลุ่ม The Seven นี้ ประกอบไปด้วย Annie January / Starlight (รับบทโดย Erin Moriarty), The Deep (รับบทโดย Chace Crawford), A-Train (รับบทโดย Jessie T. Usher Jr.), Queen Maeve (รับบทโดย Dominique McElligott), The Homelander (รับบทโดย Antony Starr) และ Black Noir (รับบทโดย Nathan Mitchell) โดยมี Madelyn Stillwell (รับบทโดย Elisabeth Shue) ผู้บริหารบริษัทยักษ์ใหญ่ที่อยู่เบื้องหลังความชั่วร ้ายของ The Seven

    Format : Matroska
    Format version : Version 4
    File size : 6.41 GiB
    Duration : 1 h 0 min
    Overall bit rate : 15.2 Mb/s
    Movie name : The.Boys.S01E01.2160p.WEB-DL.DDP5.1.HDR.HEVC_by SkiesIT
    Encoded date : UTC 2019-08-04 07:37:17
    Writing application : mkvmerge v35.0.0 ('All The Love In The World') 64-bit
    Writing library : libebml v1.3.9 + libmatroska v1.5.2

    Video
    ID : 1
    Format : HEVC
    Format/Info : High Efficiency Video Coding
    Format profile : Main [email protected]@Main
    HDR format : SMPTE ST 2094 App 4, Version 0
    Codec ID : V_MPEGH/ISO/HEVC
    Duration : 1 h 0 min
    Bit rate : 14.5 Mb/s
    Width : 3 840 pixels
    Height : 2 160 pixels
    Display aspect ratio : 16:9
    Frame rate mode : Constant
    Frame rate : 23.976 (24000/1001) FPS
    Standard : NTSC
    Color space : YUV
    Chroma subsampling : 4:2:0 (Type 2)
    Bit depth : 10 bits
    Bits/(Pixel*Frame) : 0.073
    Stream size : 6.10 GiB (95%)
    Title : The.Boys.S01E01.2160p.WEB-DL.DDP5.1.HDR.HEVC_by SkiesIT
    Language : English
    Default : Yes
    Forced : No
    Color range : Limited
    Color primaries : BT.2020
    Transfer characteristics : PQ
    Matrix coefficients : BT.2020 non-constant
    Mastering display color primaries : Display P3
    Mastering display luminance : min: 0.0001 cd/m2, max: 1000 cd/m2
    Maximum Content Light Level : 848 cd/m2
    Maximum Frame-Average Light Level : 151 cd/m2

    Audio
    ID : 2
    Format : E-AC-3
    Format/Info : Enhanced AC-3
    Commercial name : Dolby Digital Plus
    Codec ID : A_EAC3
    Duration : 1 h 0 min
    Bit rate mode : Constant
    Bit rate : 640 kb/s
    Channel(s) : 6 channels
    Channel layout : L R C LFE Ls Rs
    Sampling rate : 48.0 kHz
    Frame rate : 31.250 FPS (1536 SPF)
    Compression mode : Lossy
    Stream size : 275 MiB (4%)
    Title : English
    Language : English
    Service kind : Complete Main
    Default : Yes
    Forced : No

    Text #1
    ID : 3
    Format : UTF-8
    Codec ID : S_TEXT/UTF8
    Codec ID/Info : UTF-8 Plain Text
    Duration : 57 min 22 s
    Bit rate : 152 b/s
    Count of elements : 848
    Stream size : 64.3 KiB (0%)
    Title : Thai SRT From Amazon
    Language : Thai
    Default : Yes
    Forced : No

    Text #2
    ID : 4
    Format : PGS
    Muxing mode : zlib
    Codec ID : S_HDMV/PGS
    Codec ID/Info : Picture based subtitle format used on BDs/HD-DVDs
    Duration : 57 min 22 s
    Bit rate : 37.5 kb/s
    Count of elements : 1696
    Stream size : 15.4 MiB (0%)
    Title : Thai AN PGS From Amazon
    Language : Thai
    Default : No
    Forced : No

    Text #3
    ID : 5
    Format : PGS
    Muxing mode : zlib
    Codec ID : S_HDMV/PGS
    Codec ID/Info : Picture based subtitle format used on BDs/HD-DVDs
    Duration : 57 min 22 s
    Bit rate : 37.5 kb/s
    Count of elements : 1696
    Stream size : 15.4 MiB (0%)
    Title : Thai PGS Yellow From Amazon
    Language : Thai
    Default : No
    Forced : No

    Text #4
    ID : 6
    Format : PGS
    Muxing mode : zlib
    Codec ID : S_HDMV/PGS
    Codec ID/Info : Picture based subtitle format used on BDs/HD-DVDs
    Duration : 57 min 22 s
    Bit rate : 43.6 kb/s
    Count of elements : 1696
    Stream size : 17.9 MiB (0%)
    Title : Thai PGS BIG From Amazon
    Language : Thai
    Default : No
    Forced : No

    Text #5
    ID : 7
    Format : PGS
    Muxing mode : zlib
    Codec ID : S_HDMV/PGS
    Codec ID/Info : Picture based subtitle format used on BDs/HD-DVDs
    Duration : 57 min 22 s
    Bit rate : 34.8 kb/s
    Count of elements : 1696
    Stream size : 14.3 MiB (0%)
    Title : Thai TM PGS From Amazon
    Language : Thai
    Default : No
    Forced : No

    Text #6
    ID : 8
    Format : PGS
    Muxing mode : zlib
    Codec ID : S_HDMV/PGS
    Codec ID/Info : Picture based subtitle format used on BDs/HD-DVDs
    Duration : 59 min 35 s
    Bit rate : 42.7 kb/s
    Count of elements : 2394
    Stream size : 18.2 MiB (0%)
    Title : English PGS From Amazon
    Language : English
    Default : No
    Forced : No




















    Download: cornfile
    The.Boys.S01E01.2160p.WEB-DL.DDP5.1.HDR.HEVC_by SkiesIT.mkv - 6.4 GB
    The.Boys.S01E02.2160p.WEB-DL.DDP5.1.HDR.HEVC_by SkiesIT.mkv - 6.3 GB
    The.Boys.S01E03.2160p.WEB-DL.DDP5.1.HDR.HEVC_by SkiesIT.mkv - 5.8 GB
    The.Boys.S01E04.2160p.WEB-DL.DDP5.1.HDR.HEVC_by SkiesIT.mkv - 6.0 GB
    The.Boys.S01E05.2160p.WEB-DL.DDP5.1.HDR.HEVC_by SkiesIT.mkv - 6.4 GB
    The.Boys.S01E06.2160p.WEB-DL.DDP5.1.HDR.HEVC_by SkiesIT.mkv - 6.4 GB
    The.Boys.S01E07.2160p.WEB-DL.DDP5.1.HDR.HEVC_by SkiesIT.mkv - 6.0 GB
    The.Boys.S01E08.2160p.WEB-DL.DDP5.1.HDR.HEVC_by SkiesIT.mkv - 7.1 GB
    Download: mekafile
    1 http://www.mekafile.com/dl.php?f=nt538dbXt4OM
    2 http://www.mekafile.com/dl.php?f=Kma745bXt49z
    3 http://www.mekafile.com/dl.php?f=nh6273bXt4Jm
    4 http://www.mekafile.com/dl.php?f=JM6118bXt42e
    5 http://www.mekafile.com/dl.php?f=COf24cbXt4n7
    6 http://www.mekafile.com/dl.php?f=Ek389dbXt4u0
    7 http://www.mekafile.com/dl.php?f=Xj09a8bXt4g7
    8 http://www.mekafile.com/dl.php?f=1u09c7bXt4Bz

  2. The Following User Says Thank You to Duckload.us For This Useful Post:

    jangska (08-16-2019)

+ Reply to Thread

Thread Information

Users Browsing this Thread

There are currently 1 users browsing this thread. (0 members and 1 guests)

     

Posting Permissions

  • You may not post new threads
  • You may not post replies
  • You may not post attachments
  • You may not edit your posts