+ Reply to Thread
Results 1 to 4 of 4
  1. #1
    Administrators Duckload.us's Avatar
    Join Date
    Dec 2010
    Posts
    106,041
    Thanks
    9
    Thanked 109,972 Times in 51,394 Posts

    Thumbs up Pet Sematary (1989-1992) ѺҡҪ Ҥ1-2 [ҡ NETFLIX] [ҡ:ѧ][SUB:+ѧ][1080p] [AC-3][h264][Ѻµ鹩Ѻ NETFLIX PGS]







    Format : Matroska
    Format version : Version 4 / Version 2
    File size : 3.45 GiB
    Duration : 1 h 42 min
    Overall bit rate : 4 795 kb/s
    Movie name : [email protected]
    Encoded date : UTC 2019-08-03 10:27:39
    Writing application : mkvmerge v24.0.0 ('Beyond The Pale') 64-bit
    Writing library : libebml v1.3.6 + libmatroska v1.4.9

    Video
    ID : 1
    Format : AVC
    Format/Info : Advanced Video Codec
    Format profile : [email protected]
    Format settings, CABAC : No
    Format settings, RefFrames : 1 frame
    Codec ID : V_MPEG4/ISO/AVC
    Duration : 1 h 42 min
    Bit rate : 4 129 kb/s
    Width : 1 920 pixels
    Height : 1 080 pixels
    Display aspect ratio : 16:9
    Frame rate mode : Constant
    Frame rate : 29.970 FPS
    Original frame rate : 29.000 FPS
    Color space : YUV
    Chroma subsampling : 4:2:0
    Bit depth : 8 bits
    Scan type : Progressive
    Bits/(Pixel*Frame) : 0.066
    Stream size : 2.97 GiB (86%)
    Default : Yes
    Forced : No
    Comment : NETFLIX BY ARGON

    Audio
    ID : 2
    Format : E-AC-3
    Format/Info : Enhanced Audio Coding 3
    Format settings, Endianness : Big
    Codec ID : A_EAC3
    Duration : 1 h 42 min
    Bit rate mode : Constant
    Bit rate : 640 kb/s
    Channel(s) : 6 channels
    Channel positions : Front: L C R, Side: L R, LFE
    Sampling rate : 48.0 kHz
    Frame rate : 187.500 FPS (256 SPF)
    Compression mode : Lossy
    Delay relative to video : -20 ms
    Stream size : 471 MiB (13%)
    Title : EN AC3
    Language : English
    Service kind : Complete Main
    Default : Yes
    Forced : No

    Text #1
    ID : 3
    Format : PGS
    Muxing mode : zlib
    Codec ID : S_HDMV/PGS
    Codec ID/Info : Picture based subtitle format used on BDs/HD-DVDs
    Duration : 1 h 38 min
    Bit rate : 13.0 kb/s
    Count of elements : 1488
    Stream size : 9.17 MiB (0%)
    Title : TH_PGS
    Language : Thai
    Default : Yes
    Forced : No

    Text #2
    ID : 4
    Format : PGS
    Muxing mode : zlib
    Codec ID : S_HDMV/PGS
    Codec ID/Info : Picture based subtitle format used on BDs/HD-DVDs
    Duration : 1 h 41 min
    Bit rate : 38.5 kb/s
    Count of elements : 2468
    Stream size : 28.1 MiB (1%)
    Title : EN_PGS
    Language : English
    Default : No
    Forced : No







    Format : Matroska
    Format version : Version 4 / Version 2
    File size : 3.36 GiB
    Duration : 1 h 40 min
    Overall bit rate : 4 791 kb/s
    Movie name : [email protected]
    Encoded date : UTC 2019-08-03 11:58:08
    Writing application : mkvmerge v24.0.0 ('Beyond The Pale') 64-bit
    Writing library : libebml v1.3.6 + libmatroska v1.4.9

    Video
    ID : 1
    Format : AVC
    Format/Info : Advanced Video Codec
    Format profile : [email protected]
    Format settings, CABAC : No
    Format settings, RefFrames : 1 frame
    Codec ID : V_MPEG4/ISO/AVC
    Duration : 1 h 40 min
    Bit rate : 4 129 kb/s
    Width : 1 920 pixels
    Height : 1 080 pixels
    Display aspect ratio : 16:9
    Frame rate mode : Constant
    Frame rate : 29.970 FPS
    Original frame rate : 29.000 FPS
    Color space : YUV
    Chroma subsampling : 4:2:0
    Bit depth : 8 bits
    Scan type : Progressive
    Bits/(Pixel*Frame) : 0.066
    Stream size : 2.90 GiB (86%)
    Default : Yes
    Forced : No
    Comment : NETFLIX BY ARGON

    Audio
    ID : 2
    Format : E-AC-3
    Format/Info : Enhanced Audio Coding 3
    Format settings, Endianness : Big
    Codec ID : A_EAC3
    Duration : 1 h 40 min
    Bit rate mode : Constant
    Bit rate : 640 kb/s
    Channel(s) : 6 channels
    Channel positions : Front: L C R, Side: L R, LFE
    Sampling rate : 48.0 kHz
    Frame rate : 187.500 FPS (256 SPF)
    Compression mode : Lossy
    Delay relative to video : -20 ms
    Stream size : 460 MiB (13%)
    Title : EN AC3
    Language : English
    Service kind : Complete Main
    Default : Yes
    Forced : No

    Text #1
    ID : 3
    Format : PGS
    Muxing mode : zlib
    Codec ID : S_HDMV/PGS
    Codec ID/Info : Picture based subtitle format used on BDs/HD-DVDs
    Duration : 1 h 38 min
    Bit rate : 12.0 kb/s
    Count of elements : 1418
    Stream size : 8.45 MiB (0%)
    Title : TH_PGS
    Language : Thai
    Default : Yes
    Forced : No

    Text #2
    ID : 4
    Format : PGS
    Muxing mode : zlib
    Codec ID : S_HDMV/PGS
    Codec ID/Info : Picture based subtitle format used on BDs/HD-DVDs
    Duration : 1 h 35 min
    Bit rate : 29.6 kb/s
    Count of elements : 2020
    Stream size : 20.1 MiB (1%)
    Title : EN_PGS
    Language : English
    Default : No
    Forced : No



    Video: MPEG4 Video (H264) 1920x1080 29.97fps [V: h264 constrained baseline L5.0, yuv420p, 1920x1080 [default]]
    Audio: DD+ 48000Hz 6ch 640kbps [A: EN AC3 [English] (eac3, 48000 Hz, 5.1, 640 kb/s) [default]]
    Subtitle [S: TH_PGS [Thai] (pgs) [default]]
    Subtitle [S: EN_PGS [English] (pgs)]
    Subtitle [S: Forced Subtitles (auto)]
    Subtitle: UTF-8 [S: No subtitles]

    Paheli.2005.1080p.APP-DL.HINDI.DDP5.1.x264.mkv - 5.7 GB
    Pet.Sematary.2.1992.1080p.APP-DL.DDP5.1.x264.mkv - 3.4 GB


    1 http://www.mekafile.com/dl.php?f=jea674bXnSzq
    2 http://www.mekafile.com/dl.php?f=qe242ebXnROe

  2. #2
    Senior Member
    Join Date
    Jul 2012
    Posts
    6,144
    Thanks
    0
    Thanked 0 Times in 0 Posts
    ͺسҡ

  3. #3
    Senior Member
    Join Date
    Jun 2014
    Posts
    866
    Thanks
    0
    Thanked 0 Times in 0 Posts
    ͺسѺ

  4. #4
    Junior Member
    Join Date
    Jun 2013
    Posts
    21
    Thanks
    0
    Thanked 0 Times in 0 Posts
    ͧáԴͧѺ

Thread Information

Users Browsing this Thread

There are currently 1 users browsing this thread. (0 members and 1 guests)

     

Posting Permissions

  • You may not post new threads
  • You may not post replies
  • You may not post attachments
  • You may not edit your posts