+ Reply to Thread
Results 1 to 3 of 3
  1. #1
    Administrators Duckload.us's Avatar
    Join Date
    Dec 2010
    Posts
    106,224
    Thanks
    9
    Thanked 110,150 Times in 51,457 Posts

    Question [ IMAX] Avengers Endgame 2019 IMAX 1080p DTS-HD MA TrueHD 7 [พากย์:ไทย2.0 / อังกฤษ][SUB:ซับไทยแปลเอง][1080i/p] ไฟล์มาสเตอร์จากเวปนอก ***มีให้เลือก 2 แบบ***มีเสียงไทย 2.0 eng DTS-HD.MA.7.1+TrueHD.7.1.Atmos [ซับไทยแปล]





    General
    Unique ID : 1142400077282585513750612530094074056 (0xDC04AC253B3C38BC5B19FFD13AE8C8)
    Complete name : F:\mix load\Avengers.Endgame.2019.1080p.2in1.IMAX Edition.DTS-HD.MA.TrueHD.7.1.Atmos.mkv
    Format : Matroska
    Format version : Version 4
    File size : 52.0 GiB
    Duration : 3 h 1 min
    Overall bit rate mode : Variable
    Overall bit rate : 41.1 Mb/s
    Movie name : Avenger's Endgame 2019 from селезень
    Encoded date : UTC 2019-08-05 07:48:59
    Writing application : mkvmerge v34.0.0 ('Sight and Seen') 64-bit
    Writing library : libebml v1.3.7 + libmatroska v1.5.0

    Video #1
    ID : 1
    Format : AVC
    Format/Info : Advanced Video Codec
    Format profile : [email protected]
    Format settings : CABAC / 4 Ref Frames
    Format settings, CABAC : Yes
    Format settings, RefFrames : 4 frames
    Codec ID : V_MPEG4/ISO/AVC
    Duration : 3 h 1 min
    Bit rate : 5 000 kb/s
    Width : 1 920 pixels
    Height : 1 080 pixels
    Display aspect ratio : 16:9
    Frame rate mode : Constant
    Frame rate : 23.976 (24000/1001) FPS
    Color space : YUV
    Chroma subsampling : 4:2:0
    Bit depth : 8 bits
    Scan type : Progressive
    Bits/(Pixel*Frame) : 0.101
    Stream size : 6.33 GiB (12%)
    Writing library : x264 core 157 r2958 57baac4
    Encoding settings : cabac=1 / ref=4 / deblock=1:-3:-3 / analyse=0x3:0x113 / me=umh / subme=9 / psy=1 / psy_rd=1.05:0.10 / mixed_ref=1 / me_range=24 / chroma_me=1 / trellis=2 / 8x8dct=1 / cqm=0 / deadzone=21,11 / fast_pskip=0 / chroma_qp_offset=-3 / threads=5 / lookahead_threads=1 / sliced_threads=0 / nr=0 / decimate=0 / interlaced=0 / bluray_compat=0 / constrained_intra=0 / bframes=6 / b_pyramid=2 / b_adapt=2 / b_bias=0 / direct=1 / weightb=1 / open_gop=0 / weightp=2 / keyint=240 / keyint_min=24 / scenecut=40 / intra_refresh=0 / rc=2pass / mbtree=0 / bitrate=5000 / ratetol=1.0 / qcomp=0.70 / qpmin=3 / qpmax=69 / qpstep=4 / cplxblur=20.0 / qblur=0.5 / ip_ratio=1.40 / pb_ratio=1.30 / aq=2:1.00
    Language : English
    Default : Yes
    Forced : No

    Video #2
    ID : 2
    Format : AVC
    Format/Info : Advanced Video Codec
    Format profile : [email protected]
    Format settings : CABAC / 4 Ref Frames
    Format settings, CABAC : Yes
    Format settings, RefFrames : 4 frames
    Codec ID : V_MPEG4/ISO/AVC
    Duration : 3 h 1 min
    Bit rate mode : Variable
    Bit rate : 23.2 Mb/s
    Maximum bit rate : 34.0 Mb/s
    Width : 1 920 pixels
    Height : 1 080 pixels
    Display aspect ratio : 16:9
    Frame rate mode : Constant
    Frame rate : 23.976 (24000/1001) FPS
    Color space : YUV
    Chroma subsampling : 4:2:0
    Bit depth : 8 bits
    Scan type : Progressive
    Bits/(Pixel*Frame) : 0.466
    Stream size : 29.3 GiB (56%)
    Default : No
    Forced : No

    Audio #1
    ID : 3
    Format : DTS XLL
    Format/Info : Digital Theater Systems
    Commercial name : DTS-HD Master Audio
    Codec ID : A_DTS
    Duration : 3 h 1 min
    Bit rate mode : Variable
    Bit rate : 5 028 kb/s
    Channel(s) : 8 channels
    Channel layout : C L R LFE Lb Rb Lss Rss
    Sampling rate : 48.0 kHz
    Frame rate : 93.750 FPS (512 SPF)
    Bit depth : 24 bits
    Compression mode : Lossless
    Stream size : 6.36 GiB (12%)
    Language : English
    Default : Yes
    Forced : No

    Audio #2
    ID : 4
    Format : MLP FBA 16-ch
    Format/Info : Meridian Lossless Packing FBA with 16-channel presentation
    Commercial name : Dolby TrueHD with Dolby Atmos
    Codec ID : A_TRUEHD
    Duration : 3 h 1 min
    Bit rate mode : Variable
    Bit rate : 4 777 kb/s
    Maximum bit rate : 8 430 kb/s
    Channel(s) : 8 channels
    Channel layout : L R C LFE Ls Rs Lb Rb
    Sampling rate : 48.0 kHz
    Frame rate : 1 200.000 FPS (40 SPF)
    Compression mode : Lossless
    Delay relative to video : 500 ms
    Stream size : 6.05 GiB (12%)
    Language : English
    Default : No
    Forced : No
    Number of dynamic objects : 13
    Bed channel count : 1 channel
    Bed channel configuration : LFE

    Audio #3
    ID : 5
    Format : AC-3
    Format/Info : Audio Coding 3
    Commercial name : Dolby Digital
    Codec ID : A_AC3
    Duration : 3 h 1 min
    Bit rate mode : Constant
    Bit rate : 640 kb/s
    Channel(s) : 6 channels
    Channel layout : L R C LFE Ls Rs
    Sampling rate : 48.0 kHz
    Frame rate : 31.250 FPS (1536 SPF)
    Bit depth : 16 bits
    Compression mode : Lossy
    Delay relative to video : 500 ms
    Stream size : 829 MiB (2%)
    Language : English
    Service kind : Complete Main
    Default : No
    Forced : No

    Audio #4
    ID : 6
    Format : AC-3
    Format/Info : Audio Coding 3
    Commercial name : Dolby Digital
    Codec ID : A_AC3
    Duration : 3 h 1 min
    Bit rate mode : Constant
    Bit rate : 640 kb/s
    Channel(s) : 6 channels
    Channel layout : L R C LFE Ls Rs
    Sampling rate : 48.0 kHz
    Frame rate : 31.250 FPS (1536 SPF)
    Bit depth : 16 bits
    Compression mode : Lossy
    Delay relative to video : 500 ms
    Stream size : 829 MiB (2%)
    Language : English
    Service kind : Complete Main
    Default : No
    Forced : No

    Audio #5
    ID : 7
    Format : DTS
    Format/Info : Digital Theater Systems
    Codec ID : A_DTS
    Duration : 3 h 1 min
    Bit rate mode : Constant
    Bit rate : 1 509 kb/s
    Channel(s) : 6 channels
    Channel layout : C L R Ls Rs LFE
    Sampling rate : 48.0 kHz
    Frame rate : 93.750 FPS (512 SPF)
    Bit depth : 24 bits
    Compression mode : Lossy
    Delay relative to video : 500 ms
    Stream size : 1.91 GiB (4%)
    Language : English
    Default : No
    Forced : No

    Audio #6
    ID : 8
    Format : AC-3
    Format/Info : Audio Coding 3
    Commercial name : Dolby Digital
    Codec ID : A_AC3
    Duration : 3 h 1 min
    Bit rate mode : Constant
    Bit rate : 192 kb/s
    Channel(s) : 2 channels
    Channel layout : L R
    Sampling rate : 48.0 kHz
    Frame rate : 31.250 FPS (1536 SPF)
    Bit depth : 16 bits
    Compression mode : Lossy
    Delay relative to video : 500 ms
    Stream size : 249 MiB (0%)
    Language : Thai
    Service kind : Complete Main
    Default : No
    Forced : No

    Text #1
    ID : 9
    Format : PGS
    Muxing mode : zlib
    Codec ID : S_HDMV/PGS
    Codec ID/Info : Picture based subtitle format used on BDs/HD-DVDs
    Duration : 2 h 47 min
    Bit rate : 36.6 kb/s
    Count of elements : 4658
    Stream size : 44.0 MiB (0%)
    Language : English
    Default : Yes
    Forced : No

    Text #2
    ID : 10
    Format : PGS
    Muxing mode : zlib
    Codec ID : S_HDMV/PGS
    Codec ID/Info : Picture based subtitle format used on BDs/HD-DVDs
    Duration : 3 h 0 min
    Bit rate : 39.4 kb/s
    Count of elements : 5260
    Stream size : 51.0 MiB (0%)
    Language : English
    Default : No
    Forced : No

    Text #3
    ID : 11
    Format : PGS
    Muxing mode : zlib
    Codec ID : S_HDMV/PGS
    Codec ID/Info : Picture based subtitle format used on BDs/HD-DVDs
    Duration : 3 h 0 min
    Bit rate : 39.5 kb/s
    Count of elements : 5260
    Stream size : 51.1 MiB (0%)
    Language : English
    Default : No
    Forced : No

    Text #4
    ID : 12
    Format : PGS
    Muxing mode : zlib
    Codec ID : S_HDMV/PGS
    Codec ID/Info : Picture based subtitle format used on BDs/HD-DVDs
    Duration : 3 h 0 min
    Bit rate : 19.8 kb/s
    Count of elements : 4414
    Stream size : 25.7 MiB (0%)
    Language : Thai
    Default : No
    Forced : No

    Text #5
    ID : 13
    Format : PGS
    Muxing mode : zlib
    Codec ID : S_HDMV/PGS
    Codec ID/Info : Picture based subtitle format used on BDs/HD-DVDs
    Duration : 2 h 47 min
    Bit rate : 25.2 kb/s
    Count of elements : 4410
    Stream size : 30.3 MiB (0%)
    Language : Thai
    Default : No
    Forced : No

    Menu
    00:00:00.000 : :00:00:00.000
    00:08:05.902 : :00:08:05.902
    00:20:01.700 : :00:20:01.700
    00:26:15.282 : :00:26:15.282
    00:36:57.173 : :00:36:57.173
    00:43:20.598 : :00:43:20.598
    00:48:44.171 : :00:48:44.171
    00:57:36.745 : :00:57:36.745



    Download: cornfile
    http://cornfile.com/f3o3gcb34tjc
    Download: mekafile
    http://www.mekafile.com/dl.php?f=L7f071bXslZr

  2. #2
    Senior Member
    Join Date
    Jun 2014
    Posts
    877
    Thanks
    0
    Thanked 0 Times in 0 Posts
    ขอบคุณครับ

  3. #3
    Junior Member
    Join Date
    Jan 2014
    Posts
    12
    Thanks
    2
    Thanked 0 Times in 0 Posts
    รอเสียงไทย 5.1 ครับผม
    OKLoad

+ Reply to Thread

Thread Information

Users Browsing this Thread

There are currently 1 users browsing this thread. (0 members and 1 guests)

     

Posting Permissions

  • You may not post new threads
  • You may not post replies
  • You may not post attachments
  • You may not edit your posts