+ Reply to Thread
Results 1 to 3 of 3
  1. #1
    Administrators Duckload.us's Avatar
    Join Date
    Dec 2010
    Posts
    105,571
    Thanks
    9
    Thanked 109,210 Times in 51,210 Posts

    Question (V1)-DORA AND THE LOST CITY OF GOLD (8/8/2019-Thai) ดอร่าและเมืองทองคําที่สาบสูญ-720p[Sound:Thai [Rong] AC3 2.0 & AAC 2.0]




    รสชาติหนังผจญภัยที่ไม่ได้สัมผัสมานาน
    จุดเด่น
    หนังเล่าเรื่องได้สนุก ไม่มีจุดน่าเบื่อ
    การคงเอกลักษณ์ของดอร่า ไว้คือไฮไลต์สำคัญที่ทำให้ดูสนุกขึ้น
    อิซาเบลา โมเนอร์ น่ารักมากในผมหน้าม้า และการแสดงเป็นดอร่าก็ช่วยให้ตัวละครมีสีสันขึ้น
    บูท กับ สไวเปอร์ คือตัวละครซีจีที่เด็กๆจะชื่นชอบ

    Dora and the Lost City of Gold (2019)
    G | 1h 42min | Adventure, Family | 8 August 2019 (Thailand) •• :IMDb:5.3/ 10
    Director: James Bobin
    Writers: Chris Gifford (based on the series created by), Matthew Robinson (screenplay by)
    Stars: Isabela Moner, Eugenio Derbez, Michael Pe๑a

    เสียง ไทย โรง.

    เติบโตและใช้ชีวิตในป่ามาตั้งแต่เกิด ดอร่า (อิซาเบลา โมเนอร์) สาวน้อยผมหน้าม้าที่ใช้ชีวิตอยู่กับ พ่อ (ไมเคิล เพนยา)กับแม่ (อีวา ลองเกอเรีย)นักสำรวจที่ปลูกฝังความช่างสงสัยให้เธอ จนกระทั่ง ดอร่า ต้องไปใช้ชีวิตในเมือง โดยได้่กลับไปพบ ดิเอโก (เจฟฟ์ วอห์ลเบิร์ก)ลูกพี่ลูกน้องคนสนิทที่เปลี่ยนไปจากสังค มไฮสคูล และขณะไปทัศนศึกษาที่พิพิธภัณฑ์ ดอร่าและเพื่อนๆก็ถูกกลุ่มนักล่าสมบัติลักพาตัวไปยัง เปรูที่พ่อแม่ของเธอขาดการติดต่อไป งานนี้ ดอร่า ดิเอโก และ แซมมี (แมดเดลีน แมดเดน) กับ แรนดี (นิโคลัส คูมบ์) เพื่อนใหม่ของทั้งคู่ต้องทำทุกทางเพื่อตามหาพ่อและแม ่นักสำรวจที่หายตัวไป ก่อนเหล่าร้ายจะค้นพบ พาราพาต้า เมืองทองคำของเผ่าอินคาและฉกสมบัติไปจากที่ที่มันควร อยู่

    Format : Matroska
    Format version : Version 4
    File size : 3.17 GiB
    Duration : 1 h 38 min
    Overall bit rate : 4 622 kb/s
    Movie name : Dora.And.The.Lost.City.Of.Gold.2019.hd.cam THR

    Cover : Yes
    Attachments : cover.jpg

    Video
    ID : 1
    Format : AVC
    Format/Info : Advanced Video Codec
    Format profile : [email protected]
    Format settings : CABAC / 1 Ref Frames
    Format settings, CABAC : Yes
    Format settings, Reference : 1 frame
    Format settings, GOP : M=1, N=25
    Codec ID : V_MPEG4/ISO/AVC
    Duration : 1 h 38 min
    Bit rate mode : Constant
    Bit rate : 3 800 kb/s
    Width : 1 280 pixels
    Height : 536 pixels
    Display aspect ratio : 2.40:1
    Frame rate mode : Constant
    Frame rate : 29.970 (30000/1001) FPS
    Color space : YUV
    Chroma subsampling : 4:2:0
    Bit depth : 8 bits
    Scan type : Progressive
    Bits/(Pixel*Frame) : 0.185
    Stream size : 2.61 GiB (82%)
    Title : Dora.And.The.Lost.City.Of.Gold.2019.hd.cam THR
    Language : Thai
    Default : Yes
    Forced : No

    Audio #1
    ID : 2
    Format : AC-3
    Format/Info : Audio Coding 3
    Commercial name : Dolby Digital
    Codec ID : A_AC3
    Duration : 1 h 38 min
    Bit rate mode : Constant
    Bit rate : 640 kb/s
    Channel(s) : 2 channels
    Channel layout : L R
    Sampling rate : 44.1 kHz
    Frame rate : 28.711 FPS (1536 SPF)
    Bit depth : 16 bits
    Compression mode : Lossy
    Stream size : 450 MiB (14%)
    Title : 2.0 AC3 THAI 640K 449M
    Language : Thai
    Service kind : Complete Main
    Default : Yes
    Forced : No

    Audio #2
    ID : 3
    Format : AAC LC
    Format/Info : Advanced Audio Codec Low Complexity
    Codec ID : A_AAC-2
    Duration : 1 h 38 min
    Bit rate : 182 kb/s
    Channel(s) : 2 channels
    Channel layout : L R
    Sampling rate : 44.1 kHz
    Frame rate : 43.066 FPS (1024 SPF)
    Compression mode : Lossy
    Stream size : 128 MiB (4%)
    Title : 2.0 AAC 192K 128M
    Language : Thai
    Default : No
    Forced : No






    Download: cornfile
    http://cornfile.com/r6hfe5ylenep
    Download: mekafile
    http://www.mekafile.com/dl.php?f=vf9e68bXCIy1

  2. The Following User Says Thank You to Duckload.us For This Useful Post:

    Wesker_TOT (08-11-2019)

  3. #2
    Senior Member
    Join Date
    Jun 2014
    Posts
    791
    Thanks
    0
    Thanked 0 Times in 0 Posts
    ขอบคุณครับ

  4. #3
    Senior Member
    Join Date
    Dec 2013
    Posts
    1,728
    Thanks
    3,683
    Thanked 0 Times in 0 Posts
    ขอบคุณนะครับ...

+ Reply to Thread

Thread Information

Users Browsing this Thread

There are currently 1 users browsing this thread. (0 members and 1 guests)

     

Posting Permissions

  • You may not post new threads
  • You may not post replies
  • You may not post attachments
  • You may not edit your posts