+ Reply to Thread
Results 1 to 7 of 7
  1. #1
    Administrators Duckload.us's Avatar
    Join Date
    Dec 2010
    Posts
    105,520
    Thanks
    9
    Thanked 109,198 Times in 51,203 Posts

    Cool [ญี่ปุ่น 18+] [ใหม่] The Naked Director (2019) : โป๊ บ้า กล้า รวย [พากย์ไทย 5.1 + เสียงญี่ปุ่น 5.1] [บรรยายไทย + อังกฤษ] [เสียง + ซับไทย Master From Netflix + ซับ PGS คมชัด]-WEB-DL.H.264.1080p. [Hi-def rip from Master]-[พากย์ไทย บรรยายไทย]







    The Naked Director



    Rating: 8.3/10 Year: 2019 Genres: Biography / Drama Runtime: n/A Language: Japanese Director: n/A Writers: Kรดsuke Nishi / Yoshitatsu Yamada / Eiji Uchida Cast: Takayuki Yamada / Shinnosuke Mitsushima / Misato Moritaโ€ฆ Plot:

    Pinku (the Japanese softcore film sub-genre) has a long and historied part in Japanese cinema. The genre has existed for over forty years and seen many ebbs and flows. One of the directors during the heyday of the movement was the prolific Muranishi Toru. Adpated from a novel about the man, The Naked Director depicts the character, his art, vision and his interactions with the approving and disapproving folk around him. Written by aghaemi

    The Naked Director (2019) โป๊ บ้า กล้า รวย

    นักแสดงนำ:ทากายูกิ ยามาดะ, ชินโนะสุเกะ มิตสึชิมะ, เท็ตสึจิ ทามายามะ

    เรื่องย่อ
    ในปี 1980 ประเทศญี่ปุ่น เรื่องราวของโทรุ มุรานิชิ (Takayuki Yamada) ผู้ปฏิวัติวงการหนังโป๊ในประเทศญี่ปุ่นเริ่มต้นขึ้น หลังจากที่บริษัทสารานุกรมอังกฤษที่เขาดำรงพนักงานฝ่ ายขายยอดเยี่ยมถูกปิดลง ทำให้เขาต้องกลับบ้านเร็วกว่าปกติ และพบว่า ภรรยากำลังนอกใจ ขณะที่เขาสูญเสียทั้งงาน ครอบครัว และรู้สึกสิ้นหวัง เขาก็ได้พบกับโทชิ (Shinosuke Mitsushima) นักธุรกิจรายย่อยที่ได้แนะนำให้เขารู้จักกับโลกนิตยส ารผู้ใหญ่ หลังจากรู้ว่านั่นคือการขายเซ็กซ์ มุรานิชิ ก็ได้ร่วมงานกับโทชิ เพื่อสร้างเครือบริษัท แม็กกาซีนผู้ใหญ่อย่างรวดเร็ว ขณะเดียวกัน เขาก็ได้ท้าทายอำนาจของกฏหมายเรื่องการเซนเซอร์หนังโ ป๊ของญี่ปุ่น ด้วยการขอความช่วยเหลือจากผู้จัดพิมพ์ท้องถิ่น อย่างคาวาดะ (Tetsuji Tamayama) เพื่อตีพิมพ์นิตยสารสำหรับผู้ใหญ่แบบไม่เซนเซอร์ สิ่งนี้ได้เรียกความสนใจจาก ตำรวจ ยากูซ่า และผู้ผลิตหนังโป๊ที่ทรงอิทธิพลในญี่ปุ่น อย่างอิเคซาว่า (Ryo Ishibashi) เป็นอย่างมาก

    ไม่ช้า มุรานิชิก็ได้สร้างอาณาจักรของนิตยสารผู้ใหญ่ขึ้นมา และเริ่มทำวีดีโอสำหรับผู้ใหญ่ โดยได้แรงบันดาลใจจาก เมกุมิ (Misato Morita) นักเรียนศิลปะที่ต้องการจะปลดปล่อยความช่ำชองทางเพศข องเธอออกมา ทว่า เมื่อธุรกิจวีดีโอสำหรับผู้ใหญ่กำลังเริ่มต้นเปิดตัว มุรานิชิก็ต้องเผชิญกับการหยุดชะงักของธุรกิจ ที่ได้นำพาเขาไปสู่การเผชิญหน้ากับกฏหมายอย่างซึ่งๆ หน้า นำทีมโดยนักสืบทาเคอิ (Lily Franky) ซีรีส์เรื่อง โป๊ บ้า กล้า รวย (The Naked Director) มุรานิชิจะขอผลักกำแพงของสิ่งที่ “ยอมรับได้” ออกไป และจะปฏิวัติวงการ รวมทั้งพาคุณไปเป็นพยานของการกำเนิดดาวที่ชื่อวาเมกุ มิ ซึ่งภายหลังเป็นที่รู้จัก ในนาม คาโอรุ คุโรกิ (Kaoru Kuroki)

    Format : Matroska
    Format version : Version 4
    File size : 1.89 GiB
    Duration : 47 min 24 s
    Overall bit rate : 5 717 kb/s
    Movie name : The.Naked.Director.2019.S01E01.1080p.NF.WEB-Rip.DDP5.1.x264_by SkiesIT
    Encoded date : UTC 2019-08-09 06:02:50
    Writing application : mkvmerge v35.0.0 ('All The Love In The World') 64-bit
    Writing library : libebml v1.3.9 + libmatroska v1.5.2

    Video
    ID : 1
    Format : AVC
    Format/Info : Advanced Video Codec
    Format profile : [email protected]
    Format settings : CABAC / 3 Ref Frames
    Format settings, CABAC : Yes
    Format settings, Reference frames : 3 frames
    Codec ID : V_MPEG4/ISO/AVC
    Duration : 47 min 24 s
    Bit rate : 4 402 kb/s
    Width : 1 920 pixels
    Height : 1 080 pixels
    Display aspect ratio : 16:9
    Frame rate mode : Constant
    Frame rate : 24.000 FPS
    Color space : YUV
    Chroma subsampling : 4:2:0
    Bit depth : 8 bits
    Scan type : Progressive
    Bits/(Pixel*Frame) : 0.088
    Stream size : 1.46 GiB (77%)
    Title : The.Naked.Director.2019.S01E01.1080p.NF.WEB-Rip.DDP5.1.x264_by SkiesIT
    Language : Japanese
    Default : Yes
    Forced : No

    Audio #1
    ID : 2
    Format : E-AC-3
    Format/Info : Enhanced AC-3
    Commercial name : Dolby Digital Plus
    Codec ID : A_EAC3
    Duration : 47 min 24 s
    Bit rate mode : Constant
    Bit rate : 640 kb/s
    Channel(s) : 6 channels
    Channel layout : L R C LFE Ls Rs
    Sampling rate : 48.0 kHz
    Frame rate : 31.250 FPS (1536 SPF)
    Compression mode : Lossy
    Stream size : 217 MiB (11%)
    Title : Thai E-AC3 5.1 @ 640 kbps
    Language : Thai
    Service kind : Complete Main
    Default : Yes
    Forced : No

    Audio #2
    ID : 3
    Format : E-AC-3
    Format/Info : Enhanced AC-3
    Commercial name : Dolby Digital Plus
    Codec ID : A_EAC3
    Duration : 47 min 24 s
    Bit rate mode : Constant
    Bit rate : 640 kb/s
    Channel(s) : 6 channels
    Channel layout : L R C LFE Ls Rs
    Sampling rate : 48.0 kHz
    Frame rate : 31.250 FPS (1536 SPF)
    Compression mode : Lossy
    Stream size : 217 MiB (11%)
    Title : Japanese E-AC3 5.1 @ 640 kbps
    Language : Japanese
    Service kind : Complete Main
    Default : No
    Forced : No

    Text #1
    ID : 4
    Format : VobSub
    Muxing mode : zlib
    Codec ID : S_VOBSUB
    Codec ID/Info : Picture based subtitle format used on DVDs
    Duration : 46 min 44 s
    Bit rate : 9 760 b/s
    Count of elements : 567
    Stream size : 3.26 MiB (0%)
    Title : Thai 1080p From Netflix
    Language : Thai
    Default : Yes
    Forced : No

    Text #2
    ID : 5
    Format : VobSub
    Muxing mode : zlib
    Codec ID : S_VOBSUB
    Codec ID/Info : Picture based subtitle format used on DVDs
    Duration : 46 min 44 s
    Bit rate : 9 757 b/s
    Count of elements : 567
    Stream size : 3.26 MiB (0%)
    Title : Thai 1080p Yellow From Netflix
    Language : Thai
    Default : No
    Forced : No

    Text #3
    ID : 6
    Format : PGS
    Muxing mode : zlib
    Codec ID : S_HDMV/PGS
    Codec ID/Info : Picture based subtitle format used on BDs/HD-DVDs
    Duration : 46 min 44 s
    Bit rate : 21.0 kb/s
    Count of elements : 1138
    Stream size : 7.02 MiB (0%)
    Title : Thai PGS From Netflix
    Language : Thai
    Default : No
    Forced : No

    Text #4
    ID : 7
    Format : PGS
    Muxing mode : zlib
    Codec ID : S_HDMV/PGS
    Codec ID/Info : Picture based subtitle format used on BDs/HD-DVDs
    Duration : 42 min 57 s
    Bit rate : 26.7 kb/s
    Count of elements : 1012
    Stream size : 8.20 MiB (0%)
    Title : English PGS From Netflix
    Language : English
    Default : No
    Forced : No


















    14.93 GB
    Download: filecondo
    http://www.filecondo.com/dl.php?f=Y69fa11HWGfp
    Download: cornfile
    The.Naked.Director.2019.S01E01.1080p.NF.WEB-Rip.DDP5.1.x264_by SkiesIT.mkv - 1.9 GB
    The.Naked.Director.2019.S01E02.1080p.NF.WEB-Rip.DDP5.1.x264_by SkiesIT.mkv - 2.2 GB
    The.Naked.Director.2019.S01E03.1080p.NF.WEB-Rip.DDP5.1.x264_by SkiesIT.mkv - 2.2 GB
    The.Naked.Director.2019.S01E04.1080p.NF.WEB-Rip.DDP5.1.x264_by SkiesIT.mkv - 1.9 GB
    The.Naked.Director.2019.S01E05.1080p.NF.WEB-Rip.DDP5.1.x264_by SkiesIT.mkv - 1.7 GB
    The.Naked.Director.2019.S01E06.1080p.NF.WEB-Rip.DDP5.1.x264_by SkiesIT.mkv - 1.8 GB
    The.Naked.Director.2019.S01E07.1080p.NF.WEB-Rip.DDP5.1.x264_by SkiesIT.mkv - 1.3 GB
    The.Naked.Director.2019.S01E08.1080p.NF.WEB-Rip.DDP5.1.x264_by SkiesIT.mkv - 1.8 GB
    Download: mekafile
    1 http://www.mekafile.com/dl.php?f=b52a40bXD07Z
    2 http://www.mekafile.com/dl.php?f=c40ee6bXD01F
    3 http://www.mekafile.com/dl.php?f=Bl7eacbXD0lE
    4 http://www.mekafile.com/dl.php?f=MQ6720bXD0eS
    5 http://www.mekafile.com/dl.php?f=AlbfcabXCZUy
    6 http://www.mekafile.com/dl.php?f=ucc07bbXD3bM
    7 http://www.mekafile.com/dl.php?f=qe3d4ebXD3id
    8 http://www.mekafile.com/dl.php?f=FNf6c1bXD3pk

  2. The Following 3 Users Say Thank You to Duckload.us For This Useful Post:

    inutero (08-16-2019), noi54 (08-13-2019), Wesker_TOT (08-11-2019)

  3. #2
    Senior Member
    Join Date
    Dec 2013
    Posts
    1,728
    Thanks
    3,683
    Thanked 0 Times in 0 Posts
    หูยยยยย...

    ขอบคุณ มากๆครับ...

  4. #3
    Senior Member
    Join Date
    Jun 2014
    Posts
    789
    Thanks
    0
    Thanked 0 Times in 0 Posts
    ขอบคุณครับ

  5. #4
    Junior Member
    Join Date
    Aug 2019
    Posts
    11
    Thanks
    0
    Thanked 0 Times in 0 Posts
    ขอบคุณครับ

  6. #5
    Junior Member
    Join Date
    Aug 2018
    Posts
    11
    Thanks
    0
    Thanked 0 Times in 0 Posts
    เฮียมาสายนี้เหรอเนี้ย 5555

  7. #6
    Senior Member
    Join Date
    Aug 2012
    Posts
    1,153
    Thanks
    1
    Thanked 0 Times in 0 Posts
    ขอบคุณครับ

  8. #7
    Senior Member
    Join Date
    Jul 2012
    Posts
    6,134
    Thanks
    0
    Thanked 0 Times in 0 Posts
    ขอบคุณมากจ้า

+ Reply to Thread

Thread Information

Users Browsing this Thread

There are currently 1 users browsing this thread. (0 members and 1 guests)

     

Posting Permissions

  • You may not post new threads
  • You may not post replies
  • You may not post attachments
  • You may not edit your posts