+ Reply to Thread
Results 1 to 5 of 5
  1. #1
    Administrators Duckload.us's Avatar
    Join Date
    Dec 2010
    Posts
    105,520
    Thanks
    9
    Thanked 109,198 Times in 51,203 Posts

    Question []-( .. ҡ )-ONE PIECE FILM GOLD (2016) ѹ ժ Ŵ-Blu-ray.H.264.1080p. [rip from Master]-[ҡ]



    Ѻü¤ͧѴǡҧ 仡ѺҡҾѹشҷ ѹդʹءª ʹ Ԩ


    ѧ : One Piece Film Gold
    ͭ : ワ ン ピ ー ス フ ィ ル ム ゴ ー ル ド
    : ѹժ Ŵ, ѹժ ٿ Ҥ 13
    : Ҿ¹͹
    : ͤ /
    ӡѺ : Hiroaki Miyamoto
    ¹ : Tsutomu Kuroiwa, Eiichiro Oda (manga)
    : 25 31 ԧҤ 2016 (੾Ҿ¹¡) :IMDb:7.1/ 10


    1080p سҾ٧!
    :ѧ ASS!
    Sound:Japanese DTS 5.1 & AAC 5.1/Thai AC3 5.1 MASTER✾ Modifide
    § From Master.


    ONE PIECE FILM GOLD (2016) ѹ ժ ŴOne.Piece.Film.Gold.2016.1080p.BluRay.-[SUPER HQ][email protected] CUP.mkv
    Format : Matroska
    Format version : Version 4
    File size : 3.77 GiB
    Duration : 2 h 0 min
    Overall bit rate : 4 494 kb/s
    Movie name : One.Piece.Film.Gold.2016.1080p.BluRay.-[SUPER HQ][email protected] CUP
    Cover : Yes
    Attachments : cover.jpg

    Video
    ID : 1
    Format : AVC
    Format/Info : Advanced Video Codec
    Format profile : [email protected]
    Format settings : CABAC / 1 Ref Frames
    Format settings, CABAC : Yes
    Format settings, Reference : 1 frame
    Format settings, GOP : M=1, N=25
    Codec ID : V_MPEG4/ISO/AVC
    Duration : 2 h 0 min
    Bit rate mode : Constant
    Bit rate : 3 000 kb/s
    Width : 1 920 pixels
    Height : 1 080 pixels
    Display aspect ratio : 16:9
    Frame rate mode : Constant
    Frame rate : 29.970 (30000/1001) FPS
    Color space : YUV
    Chroma subsampling : 4:2:0
    Bit depth : 8 bits
    Scan type : Progressive
    Bits/(Pixel*Frame) : 0.048
    Stream size : 2.51 GiB (67%)
    Title : One.Piece.Film.Gold.2016.1080p.BluRay.-[SUPER HQ][email protected] CUP
    Language : Japanese
    Default : Yes
    Forced : No

    Audio #1
    ID : 2
    Format : AC-3
    Format/Info : Audio Coding 3
    Commercial name : Dolby Digital
    Codec ID : A_AC3
    Duration : 2 h 0 min
    Bit rate mode : Constant
    Bit rate : 640 kb/s
    Channel(s) : 6 channels
    Channel layout : L R C LFE Ls Rs
    Sampling rate : 44.1 kHz
    Frame rate : 28.711 FPS (1536 SPF)
    Bit depth : 16 bits
    Compression mode : Lossy
    Stream size : 550 MiB (14%)
    Title : 5.1 AC3 THAI 640K 549M
    Language : Thai
    Service kind : Complete Main
    Default : Yes
    Forced : No

    Audio #2
    ID : 3
    Format : DTS
    Format/Info : Digital Theater Systems
    Codec ID : A_DTS
    Duration : 2 h 0 min
    Bit rate mode : Constant
    Bit rate : 661 kb/s
    Channel(s) : 6 channels
    Channel layout : C L R Ls Rs LFE
    Sampling rate : 8 000 Hz
    Frame rate : 7.813 FPS (1024 SPF)
    Bit depth : 16 bits
    Compression mode : Lossy
    Stream size : 568 MiB (15%)
    Title : DTS 5.1 JPN 8000-568M
    Language : Japanese
    Default : No
    Forced : No

    Audio #3
    ID : 4
    Format : AAC LC SBR
    Format/Info : Advanced Audio Codec Low Complexity with Spectral Band Replication
    Commercial name : HE-AAC
    Format settings : Explicit
    Codec ID : A_AAC-2
    Duration : 2 h 0 min
    Bit rate : 192 kb/s
    Channel(s) : 6 channels
    Channel layout : C L R Ls Rs LFE
    Sampling rate : 48.0 kHz
    Frame rate : 23.438 FPS (2048 SPF)
    Compression mode : Lossy
    Stream size : 165 MiB (4%)
    Title : 5.1 AAC 165M
    Language : Japanese
    Default : No
    Forced : No

    Text #1
    ID : 5
    Format : ASS
    Codec ID : S_TEXT/ASS
    Codec ID/Info : Advanced Sub Station Alpha
    Duration : 1 h 59 min
    Bit rate : 96 b/s
    Count of elements : 1731
    Compression mode : Lossless
    Stream size : 84.1 KiB (0%)
    Title : ASS
    Language : English
    Default : Yes
    Forced : No

    Text #2
    ID : 6
    Format : ASS
    Codec ID : S_TEXT/ASS
    Codec ID/Info : Advanced Sub Station Alpha
    Duration : 1 h 56 min
    Bit rate : 94 b/s
    Count of elements : 1665
    Compression mode : Lossless
    Stream size : 80.3 KiB (0%)
    Title : ASS-
    Language : English
    Default : No
    Forced : No

    Menu
    00:00:00.000 : en:00:00:00.000
    00:06:10.829 : en:00:06:10.829
    00:12:25.745 : en:00:12:25.745
    00:23:04.550 : en:00:23:04.550
    00:28:49.853 : en:00:28:49.853
    00:31:54.871 : en:00:31:54.871
    00:39:35.373 : en:00:39:35.373
    00:49:42.646 : en:00:49:42.646
    00:52:14.506 : en:00:52:14.506
    01:00:30.627 : en:01:00:30.627
    01:06:25.773 : en:01:06:25.773
    01:14:07.193 : en:01:14:07.193
    01:17:57.464 : en:01:17:57.464
    01:24:03.038 : en:01:24:03.038
    01:28:30.305 : en:01:28:30.305
    01:31:21.643 : en:01:31:21.643
    01:36:00.588 : en:01:36:00.588
    01:40:46.415 : en:01:40:46.415
    01:43:32.206 : en:01:43:32.206
    01:46:35.347 : en:01:46:35.347
    01:50:22.449 : en:01:50:22.449
    01:54:07.799 : en:01:54:07.799
    01:55:52.362 : en:01:55:52.362
    01:56:33.612 : en:01:56:33.612





    Download: cornfile
    http://cornfile.com/bx177yy7vyai
    Download: mekafile
    http://www.mekafile.com/dl.php?f=aB5ef1bXDk1U

  2. The Following 7 Users Say Thank You to Duckload.us For This Useful Post:

    agg001 (08-12-2019), apichartdear (08-12-2019), gaszolineskywalker (08-12-2019), noi54 (08-14-2019), rakterkonne (08-13-2019), Tum.m (08-18-2019), Wesker_TOT (08-11-2019)

  3. #2
    Senior Member
    Join Date
    Dec 2013
    Posts
    1,728
    Thanks
    3,683
    Thanked 0 Times in 0 Posts
    ...

    ͺس ҡѺ...

  4. #3
    Senior Member
    Join Date
    Jun 2014
    Posts
    789
    Thanks
    0
    Thanked 0 Times in 0 Posts
    ͺسѺ

  5. #4
    Junior Member iamebanhami's Avatar
    Join Date
    Mar 2017
    Posts
    15
    Thanks
    0
    Thanked 0 Times in 0 Posts
    ͹ҹԧҨ § (֡͹ § 仹Դ˹)

  6. #5
    Senior Member
    Join Date
    Oct 2012
    Posts
    667
    Thanks
    1,608
    Thanked 0 Times in 0 Posts
    ͺسѺ

Thread Information

Users Browsing this Thread

There are currently 1 users browsing this thread. (0 members and 1 guests)

     

Posting Permissions

  • You may not post new threads
  • You may not post replies
  • You may not post attachments
  • You may not edit your posts