Long Shot_(2019)
Long Shot ภาพยนตร์โรแมนติกคอเมดี้ม้ามืดแห่งปี 2019 นำโดยนักแสดงตลกตัวพ่ออย่าง เซธ โรเกน (Pine Apple Express, The Interview)
และนักแสดงหญิงคุณภาพอย่าง ชาร์ลิซ เธอรอน (Mad Max: Fury Road, Prometheus) เล่าเรื่องราวของ เฟร็ด ฟลาร์สกี้ เป็นนักข่าวหัวขบถมากฝีมือ
ที่มักจะแกว่งเท้าหาเสี้ยนตลอดเวลา เขาได้พบกับ ชาร์ล็อตต์ ฟิลด์ หนึ่งในสตรีที่มีอิทธิพลที่สุดคนหนึ่งของโลก เธอเป็นนักการเมืองสาวที่ทั้งสวยทั้งฉลาด
แต่ก่อนที่จะเป็นแบบที่เธอเป็นทุกวันนี้ เธอเคยเป็นพี่เลี้ยงของเฟร็ดมาก่อน แถมยังเป็นรักแรกของเฟร็ดด้วย
เมื่อชาร์ล็อตต์ตัดสินใจลงสมัครตำแหน่งประธานาธิบดี เธอจ้างเฟร็ดมาเป็นคนร่างสุนทรพจน์ให้ การโคจรกลับมาเจอกันครั้งนี้
ถือเป็นจุดเริ่มต้นของความฮา เมื่อทั้งคู่ต้องผจญภัยพร้อมกับรำลึกความหลังไปด้วยก ัน!!!




Format : Matroska
Format version : Version 4 / Version 2
File size : 10.9 GiB
Duration : 2 h 4 min
Overall bit rate : 12.4 Mb/s
Movie name : [email protected]bit

Video
ID : 1
Format : HEVC
Format/Info : High Efficiency Video Coding
Format profile : Main [email protected]@High
Codec ID : V_MPEGH/ISO/HEVC
Duration : 2 h 4 min
Bit rate : 7 409 kb/s
Width : 1 920 pixels
Height : 804 pixels
Display aspect ratio : 2.40:1
Frame rate mode : Constant
Frame rate : 23.976 (24000/1001) FPS
Color space : YUV
Chroma subsampling : 4:2:0
Bit depth : 10 bits
Bits/(Pixel*Frame) : 0.200
Stream size : 6.47 GiB (60%)
Title : [email protected]bit
Writing library : x265 - H.265/HEVC codec
Language : English
Default : Yes
Forced : No

Audio #1
ID : 2
Format : AC-3
Format/Info : Audio Coding 3
Format settings, Endianness : Big
Codec ID : A_AC3
Duration : 2 h 4 min
Bit rate mode : Constant
Bit rate : 448 kb/s
Channel(s) : 6 channels
Channel positions : Front: L C R, Side: L R, LFE
Sampling rate : 48.0 kHz
Frame rate : 31.250 FPS (1536 spf)
Bit depth : 16 bits
Compression mode : Lossy
Stream size : 400 MiB (4%)
Title : Thai DVD Master
Language : Thai
Service kind : Complete Main
Default : Yes
Forced : Yes

Audio #2
ID : 3
Format : DTS
Format/Info : Digital Theater Systems
Format profile : MA / Core
Mode : 16
Format settings, Endianness : Big
Codec ID : A_DTS
Duration : 2 h 4 min
Bit rate mode : Variable / Constant
Bit rate : 3 973 kb/s / 1 509 kb/s
Channel(s) : 8 channels / 6 channels
Channel positions : Front: L C R, Side: L R, Back: L R, LFE / Front: L C R, Side: L R, LFE
Sampling rate : 48.0 kHz
Frame rate : 93.750 FPS (512 spf)
Bit depth : 24 bits
Compression mode : Lossless / Lossy
Stream size : 3.47 GiB (32%)
Title : English DTS-HD MA 7.1
Language : English
Default : No
Forced : No

Audio #3
ID : 4
Format : AC-3
Format/Info : Audio Coding 3
Format settings, Endianness : Big
Codec ID : A_AC3
Duration : 2 h 4 min
Bit rate mode : Constant
Bit rate : 448 kb/s
Channel(s) : 6 channels
Channel positions : Front: L C R, Side: L R, LFE
Sampling rate : 48.0 kHz
Frame rate : 31.250 FPS (1536 spf)
Bit depth : 16 bits
Compression mode : Lossy
Stream size : 400 MiB (4%)
Title : English
Language : English
Service kind : Complete Main
Default : No
Forced : No

Text #1
ID : 5
Format : VobSub
Muxing mode : zlib
Codec ID : S_VOBSUB
Codec ID/Info : Picture based subtitle format used on DVDs
Duration : 1 h 56 min
Bit rate : 2 864 b/s
Count of elements : 2279
Stream size : 2.39 MiB (0%)
Title : Thai 480p From DVD Master
Language : Thai
Default : No
Forced : No

Text #2
ID : 6
Format : VobSub
Muxing mode : zlib
Codec ID : S_VOBSUB
Codec ID/Info : Picture based subtitle format used on DVDs
Duration : 1 h 56 min
Bit rate : 5 239 b/s
Count of elements : 2279
Stream size : 4.37 MiB (0%)
Title : Thai 720p
Language : Thai
Default : No
Forced : No

Text #3
ID : 7
Format : VobSub
Muxing mode : zlib
Codec ID : S_VOBSUB
Codec ID/Info : Picture based subtitle format used on DVDs
Duration : 1 h 56 min
Bit rate : 8 482 b/s
Count of elements : 2279
Stream size : 7.07 MiB (0%)
Title : Thai 1080p
Language : Thai
Default : Yes
Forced : Yes

Text #4
ID : 8
Format : VobSub
Muxing mode : zlib
Codec ID : S_VOBSUB
Codec ID/Info : Picture based subtitle format used on DVDs
Duration : 1 h 56 min
Bit rate : 8 473 b/s
Count of elements : 2279
Stream size : 7.06 MiB (0%)
Title : Thai 1080p Yellow
Language : Thai
Default : No
Forced : No

Text #5
ID : 9
Format : VobSub
Muxing mode : zlib
Codec ID : S_VOBSUB
Codec ID/Info : Picture based subtitle format used on DVDs
Duration : 1 h 56 min
Bit rate : 8 506 b/s
Count of elements : 2279
Stream size : 7.09 MiB (0%)
Title : Thai 1080p Out
Language : Thai
Default : No
Forced : No

Text #6
ID : 10
Format : VobSub
Muxing mode : zlib
Codec ID : S_VOBSUB
Codec ID/Info : Picture based subtitle format used on DVDs
Duration : 1 h 56 min
Bit rate : 11.1 kb/s
Count of elements : 2279
Stream size : 9.24 MiB (0%)
Title : Thai 1080p BIG
Language : Thai
Default : No
Forced : No

Text #7
ID : 11
Format : VobSub
Muxing mode : zlib
Codec ID : S_VOBSUB
Codec ID/Info : Picture based subtitle format used on DVDs
Duration : 1 h 56 min
Bit rate : 11.1 kb/s
Count of elements : 2279
Stream size : 9.27 MiB (0%)
Title : Thai 1080p Out [BIG]
Language : Thai
Default : No
Forced : No

Text #8
ID : 12
Format : PGS
Muxing mode : zlib
Codec ID : S_HDMV/PGS
Codec ID/Info : Picture based subtitle format used on BDs/HD-DVDs
Duration : 1 h 56 min
Bit rate : 27.8 kb/s
Count of elements : 4558
Stream size : 23.2 MiB (0%)
Default : No
Forced : No

Text #9
ID : 13
Format : PGS
Muxing mode : zlib
Codec ID : S_HDMV/PGS
Codec ID/Info : Picture based subtitle format used on BDs/HD-DVDs
Duration : 1 h 56 min
Bit rate : 28.1 kb/s
Count of elements : 4558
Stream size : 23.4 MiB (0%)
Default : No
Forced : No

Text #10
ID : 14
Format : PGS
Muxing mode : zlib
Codec ID : S_HDMV/PGS
Codec ID/Info : Picture based subtitle format used on BDs/HD-DVDs
Duration : 1 h 56 min
Bit rate : 27.5 kb/s
Count of elements : 4558
Stream size : 22.9 MiB (0%)
Default : No
Forced : No

Text #11
ID : 15
Format : PGS
Muxing mode : zlib
Codec ID : S_HDMV/PGS
Codec ID/Info : Picture based subtitle format used on BDs/HD-DVDs
Duration : 1 h 55 min
Bit rate : 33.5 kb/s
Count of elements : 4891
Stream size : 27.7 MiB (0%)
Title : English
Language : English
Default : No
Forced : No

Menu
00:00:00.000 : :Chapter 1
00:05:03.553 : :Chapter 2
00:16:45.213 : :Chapter 3
00:27:26.562 : :Chapter 4
00:31:23.048 : :Chapter 5
00:40:15.914 : :Chapter 6
00:45:13.127 : :Chapter 7
00:54:02.614 : :Chapter 8
01:02:53.937 : :Chapter 9
01:12:46.153 : :Chapter 10
01:17:51.834 : :Chapter 11
01:26:25.972 : :Chapter 12
01:33:33.441 : :Chapter 13
01:40:49.585 : :Chapter 14
01:50:57.776 : :Chapter 15
01:54:25.942 : :Chapter 16












Quote:




Download: cornfile
http://cornfile.com/8sa9vcrts70i
Download: mekafile
http://www.mekafile.com/dl.php?f=As6466bXD7Lo