+ Reply to Thread
Results 1 to 3 of 3
  1. #1
    Administrators Duckload.us's Avatar
    Join Date
    Dec 2010
    Posts
    105,520
    Thanks
    9
    Thanked 109,198 Times in 51,203 Posts

    Question Godzilla II: King of the Monsters (2019) ก็อดซิลล่า 2 ราชันแห่งมอนสเตอร์ [พากย์:อังกฤษ/ไทยโรงชัด][SUB:อังกฤษ][1080i/p] [เสียงไทยโรงชัด] • [บรรยาย อังกฤษ] • [1080p DolbyD Web-DL]



    Godzilla II: King of the Monsters (2019)
    ก็อดซิลล่า 2 ราชันแห่งมอนสเตอร์, Godzilla 2, Godzilla: King of the Monsters
    เรท ท ทั่วไป | 132 นาที | Action, Adventure, Sci-Fi, Fantasy, Horror
    เข้าฉาย 30 พฤษภาคม 2562

    เรื่องย่อ
    สานต่อผลงานที่ประสบความสำเร็จโด่งดังไปทั่วโลก เรื่อง Godzilla และ Kong: Skull Island สู่ภาพยนตร์สัตว์ประหลาดภาคต่อจาก Warner Bros. Pictures และ Legendary Pictures เรื่อง Godzilla II: King of the Monsters - ก็อดซิลล่า 2 ราชันแห่งมอนสเตอร์ ผลงานแนวแอ็คชั่นผจญภัยสุดอลังการที่นำก็อดซิลล่ามาเ ผชิญหน้ากับเหล่าสัตว์ประหลาดที่มีชื่อเสียงในประวัต ิศาสตร์ เรื่องราวของความกล้าหาญ และความพยายามขององค์กรโมนาร์คที่ถอดรหัสสัตว์ดึกดำบ รรพ์ เมื่อเหล่าสมาชิกต้องเผชิญหน้ากับกองทัพสัตว์ประหลาด ที่มีขนาดใหญ่มหึมา รวมถึงก็อดซิลล่ายักษ์ที่ต้องสู้กับ มอธร่า, โรแดน และศัตรูตัวร้ายของเขาอย่างคิงกิโดร่า 3 หัว เมื่อสัตว์ดึกดำบรรพ์ที่คิดว่ามีเพียงในตำนานได้ฟื้น คืนชีพขึ้นมาใหม่ พวกเขาต้องต่อสู้กันเพื่อชิงอำนาจ ทำให้ความสมดุลแห่งความอยู่รอดของมนุษย์เหมือนแขวนอย ู่บนเส้นด้าย

    General
    Unique ID : 181407142661978823201945413850632965594 (0x8879BEAC61D61F56D40D0F4A189A4DDA)
    Complete name : D:\Godzilla.King.of.the.Monsters.2019.1080p.WEB-DL.DD5.1.H264.mkv
    Format : Matroska
    Format version : Version 4 / Version 2
    File size : 4.60 GiB
    Duration : 2 h 11 min
    Overall bit rate : 4 997 kb/s
    Movie name : Godzilla.King.of.the.Monsters.2019.1080p.WEB-DL.DD5.1.H264-FGT
    Encoded date : UTC 2019-08-13 09:34:55
    Writing application : mkvmerge v33.1.0 ('Primrose') 64-bit
    Writing library : libebml v1.3.7 + libmatroska v1.5.0
    Cover : Yes
    Attachments : cover_land.jpg / small_cover.jpg / small_cover_land.jpg / cover.jpg

    Video
    ID : 1
    Format : AVC
    Format/Info : Advanced Video Codec
    Format profile : [email protected]
    Format settings : CABAC / 5 Ref Frames
    Format settings, CABAC : Yes
    Format settings, ReFrames : 5 frames
    Codec ID : V_MPEG4/ISO/AVC
    Duration : 2 h 11 min
    Bit rate : 4 514 kb/s
    Width : 1 920 pixels
    Height : 800 pixels
    Display aspect ratio : 2.40:1
    Frame rate mode : Constant
    Frame rate : 23.976 FPS
    Color space : YUV
    Chroma subsampling : 4:2:0
    Bit depth : 8 bits
    Scan type : Progressive
    Bits/(Pixel*Frame) : 0.123
    Stream size : 4.15 GiB (90%)
    Title : Godzilla.King.of.the.Monsters.2019.1080p.WEB-DL.DD5.1.H264-FGT
    Language : English
    Default : Yes
    Forced : No
    Color range : Limited
    Color primaries : BT.709
    Transfer characteristics : BT.709
    Matrix coefficients : BT.709

    Audio #1
    ID : 2
    Format : AC-3
    Format/Info : Audio Coding 3
    Commercial name : Dolby Digital
    Codec ID : A_AC3
    Duration : 2 h 11 min
    Bit rate mode : Constant
    Bit rate : 384 kb/s
    Channel(s) : 6 channels
    Channel layout : L R C LFE Ls Rs
    Sampling rate : 48.0 kHz
    Frame rate : 31.250 FPS (1536 SPF)
    Bit depth : 16 bits
    Compression mode : Lossy
    Stream size : 362 MiB (8%)
    Title : Godzilla.King.of.the.Monsters.2019.1080p.WEB-DL.DD5.1.H264-FGT
    Language : English
    Service kind : Complete Main
    Default : No
    Forced : No

    Audio #2
    ID : 3
    Format : AAC LC
    Format/Info : Advanced Audio Codec Low Complexity
    Codec ID : A_AAC-2
    Duration : 2 h 11 min
    Bit rate : 96.0 kb/s
    Channel(s) : 2 channels
    Channel layout : L R
    Sampling rate : 48.0 kHz
    Frame rate : 46.875 FPS (1024 SPF)
    Compression mode : Lossy
    Delay relative to video : 3 s 0 ms
    Stream size : 90.4 MiB (2%)
    Title : ThaiRong
    Language : Thai
    Default : Yes
    Forced : No

    Text #1
    ID : 4
    Format : UTF-8
    Codec ID : S_TEXT/UTF8
    Codec ID/Info : UTF-8 Plain Text
    Duration : 2 h 10 min
    Bit rate : 44 b/s
    Count of elements : 1482
    Stream size : 42.7 KiB (0%)
    Language : English
    Default : Yes
    Forced : No

    Text #2
    ID : 5
    Format : UTF-8
    Codec ID : S_TEXT/UTF8
    Codec ID/Info : UTF-8 Plain Text
    Duration : 2 h 11 min
    Bit rate : 53 b/s
    Count of elements : 1857
    Stream size : 51.7 KiB (0%)
    Title : SDH
    Language : English
    Default : No
    Forced : No

    Menu
    00:00:00.000 : en:1
    00:10:52.902 : en:2
    00:18:05.834 : en:3
    00:30:26.324 : en:4
    00:45:17.631 : en:5
    00:54:10.038 : en:6
    01:05:40.645 : en:7
    01:09:30.583 : en:8
    01:19:30.307 : en:9
    01:30:05.233 : en:10
    01:38:35.868 : en:11
    01:49:57.883 : en:12
    01:59:27.826 : en:13



    Download: cornfile
    http://cornfile.com/yjrh88osqqk6
    Download: mekafile
    http://www.mekafile.com/dl.php?f=tPaf28bXIMwO

  2. The Following 4 Users Say Thank You to Duckload.us For This Useful Post:

    noi54 (08-13-2019), smakha (08-14-2019), Tellmon (08-14-2019), Wesker_TOT (08-14-2019)

  3. #2
    Senior Member
    Join Date
    Jun 2014
    Posts
    789
    Thanks
    0
    Thanked 0 Times in 0 Posts
    ขอบคุณครับ

  4. #3
    Senior Member
    Join Date
    Dec 2013
    Posts
    1,728
    Thanks
    3,683
    Thanked 0 Times in 0 Posts
    ขอบคุณนะครับ...

+ Reply to Thread

Thread Information

Users Browsing this Thread

There are currently 1 users browsing this thread. (0 members and 1 guests)

     

Posting Permissions

  • You may not post new threads
  • You may not post replies
  • You may not post attachments
  • You may not edit your posts