+ Reply to Thread
Results 1 to 2 of 2
  1. #1
    Administrators Duckload.us's Avatar
    Join Date
    Dec 2010
    Posts
    106,224
    Thanks
    9
    Thanked 110,150 Times in 51,457 Posts

    Lightbulb [ฝรั่ง]-[**ใหม่ MINI HD 1080P**] • [Netflix] • GLOW Season 3 (2019) : โกลว์ [1080p.NF.WEB-DL.DDP5.1.Atmos.x264] • [เสียงอังกฤษ 5.1] • [บรรยายไทย + อังกฤษ + ซับไทย Master From Netflix คมชัด]















    แอลเอช่วงปี 1980 กลุ่มนักแสดงหญิงที่แต่ละคนต่างมีปมได้มาแสดงในโชว์ม วยปล้ำของสตรีงาม

    เรื่องราวแนวคอมเมดี้ที่สร้างโดยทีมงานเบื้องหลัง ออเรนจ์ อีส เดอะ นิว แบล็ค


    • • •

    1080p.NF.WEB-DL.DDP5.1.Atmos.x264







    เสียงอังกฤษ - บรรยาย(ซับ)ไทย Master From Netflix คมชัด



    ตอน โกลว์

    ปีเปิดตัว: 2019

    ขณะที่แก๊งสาวๆ เริ่มเปิดการแสดงในเมืองสุดหรูหราอย่างลาสเวกั ส การต่อสู้แย่งชิงอำนาจ
    ความสัมพันธ์สุดกระอักกระอ่วน และความสำคัญที่เปลี่ยนแปลงไปอาจสั่นคลอนมิตรภาพของพ วกเธอ

    1. ขาขึ้น 34 นาที
    ไม่กี่ชั่วโมงก่อนที่โกลว์จะแสดงเปิดตัวที่คาสิโนแฟน แทนในลาสเวกัส มีรายงานข่าวเผยให้เห็นโศกนาฏกรรมครั้งใหญ่ที่ทำให้ท ุกคนใจหาย

    2. ชาวอ่างน้ำร้อน 33 นาที
    แซมสอนวิธีการเล่นพนันให้รูธในช่วงวันหยุด แบชเจอปัญหาในการดูแลรอนด้าที่กำลังล้มป่วย ส่วนอาร์ธีกับโยลันดาต้องเผชิญกับสถานการณ์กลืนไม่เข ้าคายไม่ออก

    3. ละอองเกสรจากทะเลทราย 37 นาที
    หลังจากหมดความอดทนกับการแสดงที่ไม่ได้เรื่องและการอ ่อนฝึกซ้อมของสาวๆ เชอร์รีจึงพาทุกคนไปที่ชั้นเรียนสอนเต้นนางโชว์ ซึ่งทำให้เด็บบี้รู้สึกขาดความมั่นใจ

    4. ได้ 35 นาที
    การมาเยือนของรัสเซลทำให้รูธรู้สึกกังวลใจ แบชจ้างนักมายากลมาสร้างสีสันในโชว์ ส่วนชีลามุ่งมั่นฝึกฝนการแสดงต่อไปและได้ค้นพบไอดอลใ นดวงใจคนใหม่

    5. อังคารสยอง 34 นาที
    ปัญหาเกี่ยวกับหลังของแทมมีนำไปสู่ความเปลี่ยนแปลงคร ั้งใหญ่ในสังเวียนมวยปล้ำ ส่วนข้อเสนอการต่อสัญญาทำให้โปรดิวเซอร์แตกคอกัน และจัสตินขอให้แซมลองอ่านบทละครของเธอ

    6. การผจญภัย 42 นาที
    ทริปตั้งแคมป์ในหุบเขากลางทะเลทรายนอกเวกัสกลับกลายเ ป็นค่ำคืนแห่งความขัดแย้งสุดขมขื่น การครุ่นคิดค้นหาตัวตน และการเปิดเผยสุดคาดคิดที่ทุกคนต้องตะลึง

    7. กลับสู่ฮอลลีวูด 36 นาที
    แซมพาจัสตินไปพบกับผู้บริหารสตูดิโอ ขณะเดียวกันเบอร์ดี้ได้เดินทางมาถึงลาสเวกัสเพื่อใช้ เวลาร่วมกับลูกสะใภ้ ส่วนเด็บบี้ได้พบเพื่อนใหม่

    8. ไปต่อ 28 นาที
    ขณะที่รูธต้องรับมือกับความสับสนครั้งใหญ่เกี่ยวกับเ ส้นทางชีวิตที่เธอเลือก แบชกับรอนด้าได้เดินหน้าช้อปแบบกระหน่ำ ส่วนเชอร์รีกับคาร์เมนออกไปทำงานพิเศษ

    9. งานบอลลิเบอร์ทีนส์ 39 นาที
    รูธเดินทางไปแอลเอเพื่อเข้าร่วมการออดิชันครั้งสำคัญ ส่วนเด็บบี้ช่วยบ็อบบี้วางแผนทำให้งานบอลลิเบอร์ทีนเ จ๋งยิ่งกว่าเดิม และรอน ด้าวางแผนหาทางทำให้แบชกลับมาสนใจ

    10. สุขสันต์วันคริสต์มาสจากชาวโกลว์ 42 นาที
    เมื่อทุกคนเริ่มถอดใจ คาร์เมนพยายามโน้มน้าวให้สมาชิกในทีมร่วมกันแสดง คริสต์มาสแครอล บนเวทีมวยปล้ำ ส่วนเด็บบี้กับแบ ชได้ร่วมมือกันสานพันธมิตรใหม่แบบไม่คาดคิด


    Code:
    ตัวอย่าง ตอน...ขาขึ้น 34 นาที
    
    
    
    Format                                   : Matroska
    Format version                           : Version 4 / Version 2
    File size                                : 1.95 GiB
    Duration                                 : 34 min 16 s
    Overall bit rate                         : 8 150 kb/s
    
    Video
    ID                                       : 1
    Format                                   : AVC
    Format/Info                              : Advanced Video Codec
    Format profile                           : [email protected]
    Format settings                          : CABAC / 3 Ref Frames
    Format settings, CABAC                   : Yes
    Format settings, RefFrames               : 3 frames
    Codec ID                                 : V_MPEG4/ISO/AVC
    Duration                                 : 34 min 16 s
    Bit rate mode                            : Variable
    Bit rate                                 : 7 500 kb/s
    Maximum bit rate                         : 11.2 Mb/s
    Width                                    : 1 920 pixels
    Height                                   : 1 080 pixels
    Display aspect ratio                     : 16:9
    Frame rate mode                          : Constant
    Frame rate                               : 23.976 (24000/1001) FPS
    Color space                              : YUV
    Chroma subsampling                       : 4:2:0
    Bit depth                                : 8 bits
    Scan type                                : Progressive
    Bits/(Pixel*Frame)                       : 0.151
    Stream size                              : 1.77 GiB (90%)
    Writing library                          : x264 core 148 r2715 7e75228
    Encoding settings                        : cabac=1 / ref=3 / deblock=1:0:0 / analyse=0x1:0x111 / me=umh / subme=10 / psy=1 / psy_rd=1.00:0.00 / mixed_ref=1 / me_range=24 / chroma_me=1 / trellis=2 / 8x8dct=0 / cqm=0 / deadzone=21,11 / fast_pskip=1 / chroma_qp_offset=-2 / threads=8 / lookahead_threads=1 / sliced_threads=0 / nr=0 / decimate=1 / interlaced=0 / bluray_compat=0 / stitchable=1 / constrained_intra=0 / bframes=2 / b_pyramid=0 / b_adapt=2 / b_bias=0 / direct=3 / weightb=1 / open_gop=0 / weightp=2 / keyint=250 / keyint_min=23 / scenecut=0 / intra_refresh=0 / rc_lookahead=48 / rc=2pass / mbtree=1 / bitrate=7500 / ratetol=1.0 / qcomp=0.50 / qpmin=6 / qpmax=51 / qpstep=4 / cplxblur=20.0 / qblur=0.5 / vbv_maxrate=11250 / vbv_bufsize=15000 / nal_hrd=vbr / filler=0 / ip_ratio=1.40 / aq=1:1.00
    Default                                  : Yes
    Forced                                   : No
    
    Audio
    ID                                       : 2
    Format                                   : E-AC-3 JOC
    Format/Info                              : Enhanced AC-3 with Joint Object Coding
    Commercial name                          : Dolby Digital Plus with Dolby Atmos
    Codec ID                                 : A_EAC3
    Duration                                 : 34 min 16 s
    Bit rate mode                            : Constant
    Bit rate                                 : 768 kb/s
    Channel(s)                               : 6 channels
    Channel layout                           : L R C LFE Ls Rs
    Sampling rate                            : 48.0 kHz
    Frame rate                               : 31.250 FPS (1536 SPF)
    Compression mode                         : Lossy
    Stream size                              : 188 MiB (9%)
    Title                                    : English 5.1
    Language                                 : English
    Service kind                             : Complete Main
    Default                                  : Yes
    Forced                                   : No
    Complexity index                         : 16
    Number of dynamic objects                : 15
    Bed channel count                        : 1 channel
    Bed channel configuration                : LFE
    
    Text #1
    ID                                       : 3
    Format                                   : UTF-8
    Codec ID                                 : S_TEXT/UTF8
    Codec ID/Info                            : UTF-8 Plain Text
    Duration                                 : 33 min 34 s
    Bit rate                                 : 93 b/s
    Count of elements                        : 634
    Stream size                              : 23.1 KiB (0%)
    Title                                    : English
    Language                                 : English
    Default                                  : No
    Forced                                   : No
    
    Text #2
    ID                                       : 4
    Format                                   : UTF-8
    Codec ID                                 : S_TEXT/UTF8
    Codec ID/Info                            : UTF-8 Plain Text
    Duration                                 : 33 min 38 s
    Bit rate                                 : 107 b/s
    Count of elements                        : 692
    Stream size                              : 26.5 KiB (0%)
    Title                                    : English [SDH]
    Language                                 : English
    Default                                  : No
    Forced                                   : No
    
    Text #3
    ID                                       : 5
    Format                                   : UTF-8
    Codec ID                                 : S_TEXT/UTF8
    Codec ID/Info                            : UTF-8 Plain Text
    Duration                                 : 33 min 36 s
    Bit rate                                 : 78 b/s
    Count of elements                        : 569
    Stream size                              : 19.3 KiB (0%)
    Title                                    : Castilian
    Language                                 : Spanish
    Default                                  : No
    Forced                                   : No
    
    Text #4
    ID                                       : 6
    Format                                   : UTF-8
    Codec ID                                 : S_TEXT/UTF8
    Codec ID/Info                            : UTF-8 Plain Text
    Duration                                 : 33 min 36 s
    Bit rate                                 : 78 b/s
    Count of elements                        : 558
    Stream size                              : 19.4 KiB (0%)
    Title                                    : Spanish
    Language                                 : Spanish
    Default                                  : No
    Forced                                   : No
    
    Text #5
    ID                                       : 7
    Format                                   : UTF-8
    Codec ID                                 : S_TEXT/UTF8
    Codec ID/Info                            : UTF-8 Plain Text
    Duration                                 : 33 min 36 s
    Bit rate                                 : 75 b/s
    Count of elements                        : 549
    Stream size                              : 18.6 KiB (0%)
    Title                                    : French
    Language                                 : French
    Default                                  : No
    Forced                                   : No
    
    Text #6
    ID                                       : 8
    Format                                   : UTF-8
    Codec ID                                 : S_TEXT/UTF8
    Codec ID/Info                            : UTF-8 Plain Text
    Duration                                 : 33 min 36 s
    Bit rate                                 : 74 b/s
    Count of elements                        : 541
    Stream size                              : 18.3 KiB (0%)
    Title                                    : German
    Language                                 : German
    Default                                  : No
    Forced                                   : No
    
    Text #7
    ID                                       : 9
    Format                                   : UTF-8
    Codec ID                                 : S_TEXT/UTF8
    Codec ID/Info                            : UTF-8 Plain Text
    Duration                                 : 33 min 36 s
    Bit rate                                 : 74 b/s
    Count of elements                        : 523
    Stream size                              : 18.4 KiB (0%)
    Title                                    : Italian
    Language                                 : Italian
    Default                                  : No
    Forced                                   : No
    
    Text #8
    ID                                       : 10
    Format                                   : UTF-8
    Codec ID                                 : S_TEXT/UTF8
    Codec ID/Info                            : UTF-8 Plain Text
    Duration                                 : 33 min 36 s
    Bit rate                                 : 76 b/s
    Count of elements                        : 564
    Stream size                              : 18.9 KiB (0%)
    Title                                    : Portuguese
    Language                                 : Portuguese
    Default                                  : No
    Forced                                   : No
    
    Text #9
    ID                                       : 11
    Format                                   : UTF-8
    Codec ID                                 : S_TEXT/UTF8
    Codec ID/Info                            : UTF-8 Plain Text
    Duration                                 : 33 min 36 s
    Bit rate                                 : 72 b/s
    Count of elements                        : 565
    Stream size                              : 17.9 KiB (0%)
    Title                                    : Brazilian Portuguese
    Language                                 : Portuguese
    Default                                  : No
    Forced                                   : No
    
    Text #10
    ID                                       : 12
    Format                                   : UTF-8
    Codec ID                                 : S_TEXT/UTF8
    Codec ID/Info                            : UTF-8 Plain Text
    Duration                                 : 33 min 36 s
    Bit rate                                 : 68 b/s
    Count of elements                        : 544
    Stream size                              : 16.8 KiB (0%)
    Title                                    : Polish
    Language                                 : Polish
    Default                                  : No
    Forced                                   : No
    
    Text #11
    ID                                       : 13
    Format                                   : UTF-8
    Codec ID                                 : S_TEXT/UTF8
    Codec ID/Info                            : UTF-8 Plain Text
    Duration                                 : 33 min 36 s
    Bit rate                                 : 80 b/s
    Count of elements                        : 569
    Stream size                              : 19.7 KiB (0%)
    Title                                    : Turkish
    Language                                 : Turkish
    Default                                  : No
    Forced                                   : No
    
    Text #12
    ID                                       : 14
    Format                                   : UTF-8
    Codec ID                                 : S_TEXT/UTF8
    Codec ID/Info                            : UTF-8 Plain Text
    Duration                                 : 33 min 36 s
    Bit rate                                 : 75 b/s
    Count of elements                        : 567
    Stream size                              : 18.7 KiB (0%)
    Title                                    : Swedish
    Language                                 : Swedish
    Default                                  : No
    Forced                                   : No
    
    Text #13
    ID                                       : 15
    Format                                   : UTF-8
    Codec ID                                 : S_TEXT/UTF8
    Codec ID/Info                            : UTF-8 Plain Text
    Duration                                 : 33 min 35 s
    Bit rate                                 : 76 b/s
    Count of elements                        : 561
    Stream size                              : 18.8 KiB (0%)
    Title                                    : Danish
    Language                                 : Danish
    Default                                  : No
    Forced                                   : No
    
    Text #14
    ID                                       : 16
    Format                                   : UTF-8
    Codec ID                                 : S_TEXT/UTF8
    Codec ID/Info                            : UTF-8 Plain Text
    Duration                                 : 33 min 36 s
    Bit rate                                 : 64 b/s
    Count of elements                        : 488
    Stream size                              : 15.9 KiB (0%)
    Title                                    : Finnish
    Language                                 : Finnish
    Default                                  : No
    Forced                                   : No
    
    Text #15
    ID                                       : 17
    Format                                   : UTF-8
    Codec ID                                 : S_TEXT/UTF8
    Codec ID/Info                            : UTF-8 Plain Text
    Duration                                 : 33 min 36 s
    Bit rate                                 : 71 b/s
    Count of elements                        : 524
    Stream size                              : 17.7 KiB (0%)
    Title                                    : Dutch
    Language                                 : Dutch
    Default                                  : No
    Forced                                   : No
    
    Text #16
    ID                                       : 18
    Format                                   : UTF-8
    Codec ID                                 : S_TEXT/UTF8
    Codec ID/Info                            : UTF-8 Plain Text
    Duration                                 : 33 min 36 s
    Bit rate                                 : 74 b/s
    Count of elements                        : 502
    Stream size                              : 18.4 KiB (0%)
    Title                                    : Norwegian
    Language                                 : Norwegian
    Default                                  : No
    Forced                                   : No
    
    Text #17
    ID                                       : 19
    Format                                   : UTF-8
    Codec ID                                 : S_TEXT/UTF8
    Codec ID/Info                            : UTF-8 Plain Text
    Duration                                 : 33 min 36 s
    Bit rate                                 : 78 b/s
    Count of elements                        : 569
    Stream size                              : 19.4 KiB (0%)
    Title                                    : Hungarian
    Language                                 : Hungarian
    Default                                  : No
    Forced                                   : No
    
    Text #18
    ID                                       : 20
    Format                                   : UTF-8
    Codec ID                                 : S_TEXT/UTF8
    Codec ID/Info                            : UTF-8 Plain Text
    Duration                                 : 33 min 36 s
    Bit rate                                 : 136 b/s
    Count of elements                        : 543
    Stream size                              : 33.5 KiB (0%)
    Title                                    : Greek
    Language                                 : Greek
    Default                                  : No
    Forced                                   : No
    
    Text #19
    ID                                       : 21
    Format                                   : UTF-8
    Codec ID                                 : S_TEXT/UTF8
    Codec ID/Info                            : UTF-8 Plain Text
    Duration                                 : 33 min 36 s
    Bit rate                                 : 125 b/s
    Count of elements                        : 567
    Stream size                              : 30.8 KiB (0%)
    Title                                    : Hebrew
    Language                                 : Hebrew
    Default                                  : No
    Forced                                   : No
    
    Text #20
    ID                                       : 22
    Format                                   : UTF-8
    Codec ID                                 : S_TEXT/UTF8
    Codec ID/Info                            : UTF-8 Plain Text
    Duration                                 : 33 min 36 s
    Bit rate                                 : 139 b/s
    Count of elements                        : 578
    Stream size                              : 34.3 KiB (0%)
    Title                                    : Arabic
    Language                                 : Arabic
    Default                                  : No
    Forced                                   : No
    
    Text #21
    ID                                       : 23
    Format                                   : UTF-8
    Codec ID                                 : S_TEXT/UTF8
    Codec ID/Info                            : UTF-8 Plain Text
    Duration                                 : 33 min 36 s
    Bit rate                                 : 86 b/s
    Count of elements                        : 562
    Stream size                              : 21.3 KiB (0%)
    Title                                    : Romanian
    Language                                 : Romanian
    Default                                  : No
    Forced                                   : No
    
    Text #22
    ID                                       : 24
    Format                                   : UTF-8
    Codec ID                                 : S_TEXT/UTF8
    Codec ID/Info                            : UTF-8 Plain Text
    Duration                                 : 33 min 36 s
    Bit rate                                 : 80 b/s
    Count of elements                        : 569
    Stream size                              : 19.8 KiB (0%)
    Title                                    : Czech
    Language                                 : Czech
    Default                                  : No
    Forced                                   : No
    
    Text #23
    ID                                       : 25
    Format                                   : UTF-8
    Codec ID                                 : S_TEXT/UTF8
    Codec ID/Info                            : UTF-8 Plain Text
    Duration                                 : 33 min 36 s
    Bit rate                                 : 111 b/s
    Count of elements                        : 568
    Stream size                              : 27.5 KiB (0%)
    Title                                    : Vietnamese
    Language                                 : Vietnamese
    Default                                  : No
    Forced                                   : No
    
    Text #24
    ID                                       : 26
    Format                                   : UTF-8
    Codec ID                                 : S_TEXT/UTF8
    Codec ID/Info                            : UTF-8 Plain Text
    Duration                                 : 33 min 36 s
    Bit rate                                 : 215 b/s
    Count of elements                        : 569
    Stream size                              : 53.0 KiB (0%)
    Title                                    : Thai
    Language                                 : Thai
    Default                                  : No
    Forced                                   : No
    
    Text #25
    ID                                       : 27
    Format                                   : UTF-8
    Codec ID                                 : S_TEXT/UTF8
    Codec ID/Info                            : UTF-8 Plain Text
    Duration                                 : 33 min 36 s
    Bit rate                                 : 99 b/s
    Count of elements                        : 576
    Stream size                              : 24.6 KiB (0%)
    Title                                    : Korean
    Language                                 : Korean
    Default                                  : No
    Forced                                   : No
    
    Text #26
    ID                                       : 28
    Format                                   : UTF-8
    Codec ID                                 : S_TEXT/UTF8
    Codec ID/Info                            : UTF-8 Plain Text
    Duration                                 : 33 min 36 s
    Bit rate                                 : 79 b/s
    Count of elements                        : 580
    Stream size                              : 19.6 KiB (0%)
    Title                                    : Chinese (Simplified)
    Language                                 : Chinese
    Default                                  : No
    Forced                                   : No
    
    Text #27
    ID                                       : 29
    Format                                   : UTF-8
    Codec ID                                 : S_TEXT/UTF8
    Codec ID/Info                            : UTF-8 Plain Text
    Duration                                 : 33 min 36 s
    Bit rate                                 : 80 b/s
    Count of elements                        : 581
    Stream size                              : 19.9 KiB (0%)
    Title                                    : Chinese (Traditional)
    Language                                 : Chinese
    Default                                  : No
    Forced                                   : No
    
    Text #28
    ID                                       : 30
    Format                                   : UTF-8
    Codec ID                                 : S_TEXT/UTF8
    Codec ID/Info                            : UTF-8 Plain Text
    Duration                                 : 33 min 36 s
    Bit rate                                 : 66 b/s
    Count of elements                        : 584
    Stream size                              : 16.3 KiB (0%)
    Title                                    : Japanese
    Language                                 : Japanese
    Default                                  : No
     Forced                                   : No


























    1
    http://www.filecondo.com/dl.php?f=6245c41HXJ1l
    2
    http://www.filecondo.com/dl.php?f=me11581HXJ2h
    3
    http://www.filecondo.com/dl.php?f=u7c4e91HXJ3g
    4
    http://www.filecondo.com/dl.php?f=8b59cc1HXJ4e
    5
    http://www.filecondo.com/dl.php?f=087fa51HXJ5c
    6
    http://www.filecondo.com/dl.php?f=acb3ce1HXJ6c
    7
    http://www.filecondo.com/dl.php?f=o349e61HXJ79
    8
    http://www.filecondo.com/dl.php?f=t7e0a81HXJ83
    9
    http://www.filecondo.com/dl.php?f=q9e13e1HXJ95
    10
    http://www.filecondo.com/dl.php?f=Ta75401HXJa4

  2. #2
    Senior Member
    Join Date
    Jul 2012
    Posts
    6,150
    Thanks
    0
    Thanked 0 Times in 0 Posts
    ขอบคุณมากจ้า

+ Reply to Thread

Thread Information

Users Browsing this Thread

There are currently 1 users browsing this thread. (0 members and 1 guests)

     

Posting Permissions

  • You may not post new threads
  • You may not post replies
  • You may not post attachments
  • You may not edit your posts