+ Reply to Thread
Results 1 to 3 of 3
  1. #1
    Administrators Duckload.us's Avatar
    Join Date
    Dec 2010
    Posts
    106,925
    Thanks
    9
    Thanked 111,385 Times in 51,815 Posts

    Question [ฝรั่ง]-[* ใหม่ *] Godzilla: King of the Monsters (2019) : ก็อดซิลล่า 2: ราชันแห่งมอนสเตอร์ [พากย์ไทยโรง + เสียงอังกฤษ 5.1] [บรรยายไทย + อังกฤษ] [ซับไทย PGS คมชัด]-WEB-DL.H.264.1080p. [Modified]-[พากย์ไทยโรง บรรยายไทย]




    Godzilla: King of the Monsters
    เรื่องราวครั้งใหม่นี้กล่าวถึงความพยายามของ โมนาร์ซ สถาบันวิจัยสิ่งมีชีวิตขนาดยักษ์ที่ไม่สามารถระบุได้ เมื่อเหล่าสมาชิกในองค์กรต้องพบกับการต่อสู้กันระหว่ างเหล่ามอนสเตอร์ยักษ์ ก็อตซิลล่า ปะทะกับ มอธร่า, โรแดน และคู่ปรับตัวฉกาจอย่าง คิงกิโดร่า เหล่าสัตว์ประหลาดโบราณไม่เป็นเพียงแค่ตำนาน พวกมันฟื้นขึ้นมาอีกครั้ง จึงต้องต่อสู้กันเพื่อความเป็นสุดยอด สะเทือนถึงการดำรงอยู่ของเผ่าพันธ์มนุษย์ที่เหมือนแข วนอยู่บนเส้นด้ายเต็มที!

    Format : Matroska
    Format version : Version 4
    File size : 4.70 GiB
    Duration : 2 h 11 min
    Overall bit rate : 5 109 kb/s
    Movie name : Godzilla.King.of.the.Monsters.2019.1080p.WEB-DL.DD5.1.H264_by SkiesIT
    Encoded date : UTC 2019-08-14 06:54:58
    Writing application : mkvmerge v36.0.0 ('Is That Jazz?') 64-bit
    Writing library : libebml v1.3.9 + libmatroska v1.5.2
    Cover : Yes
    Attachments : cover_land.jpg / small_cover.jpg / small_cover_land.jpg / cover.jpg

    Video
    ID : 1
    Format : AVC
    Format/Info : Advanced Video Codec
    Format profile : [email protected]
    Format settings : CABAC / 5 Ref Frames
    Format settings, CABAC : Yes
    Format settings, Reference frames : 5 frames
    Codec ID : V_MPEG4/ISO/AVC
    Duration : 2 h 11 min
    Bit rate : 4 514 kb/s
    Width : 1 920 pixels
    Height : 800 pixels
    Display aspect ratio : 2.40:1
    Frame rate mode : Constant
    Frame rate : 23.976 FPS
    Color space : YUV
    Chroma subsampling : 4:2:0
    Bit depth : 8 bits
    Scan type : Progressive
    Bits/(Pixel*Frame) : 0.123
    Stream size : 4.15 GiB (88%)
    Title : Godzilla.King.of.the.Monsters.2019.1080p.WEB-DL.DD5.1.H264_by SkiesIT
    Language : English
    Default : Yes
    Forced : No
    Color range : Limited
    Color primaries : BT.709
    Transfer characteristics : BT.709
    Matrix coefficients : BT.709

    Audio #1
    ID : 2
    Format : AC-3
    Format/Info : Audio Coding 3
    Commercial name : Dolby Digital
    Codec ID : A_AC3
    Duration : 2 h 11 min
    Bit rate mode : Constant
    Bit rate : 384 kb/s
    Channel(s) : 6 channels
    Channel layout : L R C LFE Ls Rs
    Sampling rate : 48.0 kHz
    Frame rate : 31.250 FPS (1536 SPF)
    Bit depth : 16 bits
    Compression mode : Lossy
    Stream size : 362 MiB (8%)
    Title : Eng DD5.1
    Language : English
    Service kind : Complete Main
    Default : Yes
    Forced : No

    Audio #2
    ID : 3
    Format : AAC LC
    Format/Info : Advanced Audio Codec Low Complexity
    Codec ID : A_AAC-2
    Duration : 2 h 11 min
    Bit rate : 96.0 kb/s
    Channel(s) : 2 channels
    Channel layout : L R
    Sampling rate : 48.0 kHz
    Frame rate : 46.875 FPS (1024 SPF)
    Compression mode : Lossy
    Delay relative to video : 3 s 0 ms
    Stream size : 90.4 MiB (2%)
    Title : Thai-Rong
    Language : Thai
    Default : No
    Forced : No

    Text #1
    ID : 4
    Format : VobSub
    Muxing mode : zlib
    Codec ID : S_VOBSUB
    Codec ID/Info : Picture based subtitle format used on DVDs
    Duration : 2 h 10 min
    Bit rate : 4 430 b/s
    Count of elements : 1401
    Stream size : 4.15 MiB (0%)
    Title : Thai 720p
    Language : Thai
    Default : Yes
    Forced : No

    Text #2
    ID : 5
    Format : VobSub
    Muxing mode : zlib
    Codec ID : S_VOBSUB
    Codec ID/Info : Picture based subtitle format used on DVDs
    Duration : 2 h 10 min
    Bit rate : 4 430 b/s
    Count of elements : 1401
    Stream size : 4.15 MiB (0%)
    Title : Thai 720p Out
    Language : Thai
    Default : No
    Forced : No

    Text #3
    ID : 6
    Format : VobSub
    Muxing mode : zlib
    Codec ID : S_VOBSUB
    Codec ID/Info : Picture based subtitle format used on DVDs
    Duration : 2 h 10 min
    Bit rate : 8 620 b/s
    Count of elements : 1401
    Stream size : 8.07 MiB (0%)
    Title : Thai 1080p
    Language : Thai
    Default : No
    Forced : No

    Text #4
    ID : 7
    Format : VobSub
    Muxing mode : zlib
    Codec ID : S_VOBSUB
    Codec ID/Info : Picture based subtitle format used on DVDs
    Duration : 2 h 10 min
    Bit rate : 8 620 b/s
    Count of elements : 1401
    Stream size : 8.07 MiB (0%)
    Title : Thai 1080p Out
    Language : Thai
    Default : No
    Forced : No

    Text #5
    ID : 8
    Format : PGS
    Muxing mode : zlib
    Codec ID : S_HDMV/PGS
    Codec ID/Info : Picture based subtitle format used on BDs/HD-DVDs
    Duration : 2 h 10 min
    Bit rate : 26.3 kb/s
    Count of elements : 2802
    Stream size : 24.6 MiB (1%)
    Title : Thai AN PGS
    Language : Thai
    Default : No
    Forced : No

    Text #6
    ID : 9
    Format : PGS
    Muxing mode : zlib
    Codec ID : S_HDMV/PGS
    Codec ID/Info : Picture based subtitle format used on BDs/HD-DVDs
    Duration : 2 h 10 min
    Bit rate : 26.3 kb/s
    Count of elements : 2802
    Stream size : 24.6 MiB (1%)
    Title : Thai AN PGS Out
    Language : Thai
    Default : No
    Forced : No

    Text #7
    ID : 10
    Format : PGS
    Muxing mode : zlib
    Codec ID : S_HDMV/PGS
    Codec ID/Info : Picture based subtitle format used on BDs/HD-DVDs
    Duration : 2 h 10 min
    Bit rate : 26.3 kb/s
    Count of elements : 2802
    Stream size : 24.6 MiB (1%)
    Title : Thai PGS Yellow
    Language : Thai
    Default : No
    Forced : No

    Text #8
    ID : 11
    Format : PGS
    Muxing mode : zlib
    Codec ID : S_HDMV/PGS
    Codec ID/Info : Picture based subtitle format used on BDs/HD-DVDs
    Duration : 2 h 10 min
    Bit rate : 26.3 kb/s
    Count of elements : 2802
    Stream size : 24.6 MiB (1%)
    Title : Thai PGS Yellow Out
    Language : Thai
    Default : No
    Forced : No

    Text #9
    ID : 12
    Format : PGS
    Muxing mode : zlib
    Codec ID : S_HDMV/PGS
    Codec ID/Info : Picture based subtitle format used on BDs/HD-DVDs
    Duration : 2 h 10 min
    Bit rate : 30.5 kb/s
    Count of elements : 2802
    Stream size : 28.6 MiB (1%)
    Title : Thai PGS BIG
    Language : Thai
    Default : No
    Forced : No

    Text #10
    ID : 13
    Format : PGS
    Muxing mode : zlib
    Codec ID : S_HDMV/PGS
    Codec ID/Info : Picture based subtitle format used on BDs/HD-DVDs
    Duration : 2 h 10 min
    Bit rate : 25.3 kb/s
    Count of elements : 2802
    Stream size : 23.6 MiB (0%)
    Title : Thai TM PGS
    Language : Thai
    Default : No
    Forced : No

    Text #11
    ID : 14
    Format : PGS
    Muxing mode : zlib
    Codec ID : S_HDMV/PGS
    Codec ID/Info : Picture based subtitle format used on BDs/HD-DVDs
    Duration : 2 h 11 min
    Bit rate : 30.8 kb/s
    Count of elements : 3714
    Stream size : 28.9 MiB (1%)
    Title : English PGS
    Language : English
    Default : No
    Forced : No

    Menu
    00:00:00.000 : en:1
    00:10:52.902 : en:2
    00:18:05.834 : en:3
    00:30:26.324 : en:4
    00:45:17.631 : en:5
    00:54:10.038 : en:6
    01:05:40.645 : en:7
    01:09:30.583 : en:8
    01:19:30.307 : en:9
    01:30:05.233 : en:10
    01:38:35.868 : en:11
    01:49:57.883 : en:12
    01:59:27.826 : en:13
















    4.7 GB
    Download: cornfile
    http://cornfile.com/z66omcpzai0k
    Download: mekafile
    http://www.mekafile.com/dl.php?f=ET8a8abXKWnc

    4.3 GB
    Download: cornfile
    http://cornfile.com/uboq9ln39trr
    Download: mekafile
    http://www.mekafile.com/dl.php?f=Im676ebXKa4T

  2. The Following 2 Users Say Thank You to Duckload.us For This Useful Post:

    Tellmon (08-15-2019), Wesker_TOT (08-15-2019)

  3. #2
    Senior Member
    Join Date
    Dec 2013
    Posts
    1,798
    Thanks
    3,743
    Thanked 0 Times in 0 Posts
    ขอบคุณมากครับ...

  4. #3
    Senior Member
    Join Date
    Jun 2014
    Posts
    992
    Thanks
    0
    Thanked 0 Times in 0 Posts
    ขอบคุณครับ

+ Reply to Thread

Thread Information

Users Browsing this Thread

There are currently 1 users browsing this thread. (0 members and 1 guests)

     

Posting Permissions

  • You may not post new threads
  • You may not post replies
  • You may not post attachments
  • You may not edit your posts