+ Reply to Thread
Results 1 to 3 of 3
  1. #1
    Administrators Duckload.us's Avatar
    Join Date
    Dec 2010
    Posts
    106,041
    Thanks
    9
    Thanked 109,970 Times in 51,393 Posts

    Question [ฝรั่ง]-[ใหม่ Blu-ray + เสียงไทยโรง 5.1] John Wick: Chapter 3 - Parabellum (2019) : จอห์น วิค แรงกว่านรก 3 [1080p] [* BluRay.THR5.1.x264 *] [พากย์ไทยโรง 5.1 + เสียงอังกฤษ DTS]



    เมื่อ John Wick ต้องถูกคนทั้งโลกตามล่าด้วยค่าหัว $14 ล้านเหรียญ เนื่องจากเขาได้แหกกฎกลาง โดยการฆ่าคนในพื้นที่โรงแรมของ Continental เขาจะทำอย่างไรเอาใจช่วยชายผู้รักหมาได้แล้ววันนี้!

    ••• 1080p.BluRay.THR5.1.x264 •••
    พากย์ไทยโรง 5.1 + เสียงอังกฤษ DTS

    John Wick Chapter 3 ในภาคใหม่นี้ John Wick ต้องถูกคนทั้งโลกตามล่าด้วยค่าหัว $14 ล้านเหรียญ เนื่องจากเขาได้แหกกฎกลาง โดยการฆ่าคนในพื้นที่โรงแรมของ Continental และยิ่งคนที่เขาฆ่าคือสมาชิกระดับสูง เขาจึงต้องสู้และฆ่ากับศัตรูรอบด้านเพื่อหาทางหลบหนี ออกจากเมืองนิวยอร์ก!

    Format : Matroska
    Format version : Version 4
    File size : 4.89 GiB
    Duration : 2 h 11 min
    Overall bit rate : 5 336 kb/s
    Movie name : {MINI Super-HQ}_John.Wick.Chapter.3.Parabellum.2019.1080p.BluR ay.THR5.1.x264_By [email protected]

    Video
    ID : 1
    Format : AVC
    Format/Info : Advanced Video Codec
    Format profile : [email protected]
    Format settings : CABAC / 4 Ref Frames
    Format settings, CABAC : Yes
    Format settings, Reference : 4 frames
    Codec ID : V_MPEG4/ISO/AVC
    Duration : 2 h 11 min
    Bit rate : 4 100 kb/s
    Width : 1 920 pixels
    Height : 800 pixels
    Display aspect ratio : 2.40:1
    Frame rate mode : Constant
    Frame rate : 23.976 (24000/1001) FPS
    Color space : YUV
    Chroma subsampling : 4:2:0
    Bit depth : 8 bits
    Scan type : Progressive
    Bits/(Pixel*Frame) : 0.111
    Stream size : 3.71 GiB (76%)
    Title : {MINI Super-HQ}_John.Wick.Chapter.3.Parabellum.2019.1080p.BluR ay.THR5.1.x264_By [email protected]
    Writing library : x264 core 157 r2935 545de2f
    Encoding settings : cabac=1 / ref=3 / deblock=1:0:0 / analyse=0x3:0x113 / me=hex / subme=7 / psy=1 / psy_rd=1.00:0.00 / mixed_ref=1 / me_range=16 / chroma_me=1 / trellis=1 / 8x8dct=1 / cqm=0 / deadzone=21,11 / fast_pskip=1 / chroma_qp_offset=-2 / threads=18 / lookahead_threads=3 / sliced_threads=0 / nr=0 / decimate=1 / interlaced=0 / bluray_compat=0 / constrained_intra=0 / bframes=3 / b_pyramid=2 / b_adapt=1 / b_bias=0 / direct=1 / weightb=1 / open_gop=0 / weightp=2 / keyint=240 / keyint_min=24 / scenecut=40 / intra_refresh=0 / rc_lookahead=40 / rc=abr / mbtree=1 / bitrate=4100 / ratetol=1.0 / qcomp=0.60 / qpmin=0 / qpmax=69 / qpstep=4 / vbv_maxrate=62500 / vbv_bufsize=78125 / nal_hrd=none / filler=0 / ip_ratio=1.40 / aq=1:1.00
    Language : English
    Default : Yes
    Forced : No
    Color range : Limited
    Color primaries : BT.709
    Transfer characteristics : BT.709
    Matrix coefficients : BT.709

    Audio #1
    ID : 2
    Format : AC-3
    Format/Info : Audio Coding 3
    Commercial name : Dolby Digital
    Codec ID : A_AC3
    Duration : 2 h 11 min
    Bit rate mode : Constant
    Bit rate : 640 kb/s
    Channel(s) : 6 channels
    Channel layout : L R C LFE Ls Rs
    Sampling rate : 48.0 kHz
    Frame rate : 31.250 FPS (1536 SPF)
    Bit depth : 16 bits
    Compression mode : Lossy
    Delay relative to video : -5 ms
    Stream size : 600 MiB (12%)
    Title : ThaiRong 5.1 @ 640 kb/s By Mr.Captain
    Language : Thai
    Service kind : Complete Main
    Default : Yes
    Forced : No

    Audio #2
    ID : 3
    Format : AC-3
    Format/Info : Audio Coding 3
    Commercial name : Dolby Digital
    Codec ID : A_AC3
    Duration : 2 h 11 min
    Bit rate mode : Constant
    Bit rate : 640 kb/s
    Channel(s) : 6 channels
    Channel layout : L R C LFE Ls Rs
    Sampling rate : 48.0 kHz
    Frame rate : 31.250 FPS (1536 SPF)
    Bit depth : 16 bits
    Compression mode : Lossy
    Delay relative to video : -5 ms
    Stream size : 600 MiB (12%)
    Title : English DTS @ 640 kb/s
    Language : English
    Service kind : Complete Main
    Default : No
    Forced : No













    Download: cornfile
    http://cornfile.com/l3rwnquggaeb
    Download: mekafile
    http://www.mekafile.com/dl.php?f=go120ebXPv22

  2. The Following 5 Users Say Thank You to Duckload.us For This Useful Post:

    jangska (08-17-2019), masaomi (08-21-2019), noi54 (08-26-2019), spiderpud2 (09-08-2019), Tellmon (08-21-2019)

  3. #2
    Senior Member
    Join Date
    Jun 2014
    Posts
    866
    Thanks
    0
    Thanked 0 Times in 0 Posts
    ขอบคุณครับ

  4. #3
    Junior Member jangska's Avatar
    Join Date
    Sep 2015
    Posts
    8
    Thanks
    43
    Thanked 0 Times in 0 Posts
    ไทยโรง 5.1 ฮ่าๆๆ

+ Reply to Thread

Thread Information

Users Browsing this Thread

There are currently 1 users browsing this thread. (0 members and 1 guests)

     

Posting Permissions

  • You may not post new threads
  • You may not post replies
  • You may not post attachments
  • You may not edit your posts