Frozen Planet



Rating: 9/10 Year: 2011 Genres: Documentary Runtime: 60 min Language: English / Russian Director: n/A Writers: David Attenborough / Paul Spillenger Cast: David Attenborough / Alec Baldwin / Chadden Hunterโ€ฆ Plot:

n/A











จากทีมผู้สร้างที่ชนะรางวัลเอ็มมี่ ผู้อยู่เบื้องหลัง Planet Earth และ The Blue Planet นี้เป็นซีรี่ส์แบบฉบับดั้งเดิมจาก BBC Frozen Planet อัศจรรย์โลกน้ำแข็ง บรรยายโดยนักธรรมชาติวิทยาที่มีชื่อเสียงระดับโลก Sir David Attenborough

ขั้วโลกเหนือและขั้วโลกใต้ยังคงเป็นป่าที่กว้างใหญ่ไ พศาลที่ยิ่งใหญ่ที่สุดบนโลก ขนาดและความงามของทิวทัศน์และอำนาจแท้จริงขององค์ประ กอบที่มีความได้เปรียบกว่าทุกที่อื่นในบนโลกของเรา โดยใช้เทคโนโลยีกล้องล่าสุด อัศจรรย์โลกน้ำแข็งจับภาพไปในจุดที่ยังไม่ได้รับการถ ่ายทอดทั้งด้านบนและด้านล่างน้ำแข็ง รวมทั้งก่อนหน้านี้ที่ยังไม่เคยมีการถ่ายทำ ทั้งพฤติกรรมของสัตว์และความผันผวนตามธรรมชาติดังต่อ ไปนี้แบบพิเศษ ที่มาพร้อมกับการเปลี่ยนแปลงของฤดูกาล อัศจรรย์โลกน้ำแข็งกำลังวาดภาพที่ใช้ทุกลมหายใจเข้าอ อกของคุณออกไปในช่วงเวลาเหล่านี้ที่ส่งผลกระทบต่อภูม ิภาคของโลกของเราเร็ว ๆ นี้ที่อาจจะเปลี่ยนแปลงไปตลอดกาล



General
Unique ID : 309873712787160552748501666338885771693
Complete name : JocumentaryFrozen Planet The Complete Series (2011) อัศจรรย์โลกน้ำแข็งFrozen.Planet.S01E03.2011.1080p. BluRay.AVC.8bit.DTS.x264-PATiPAT.mkv
Format : Matroska
Format version : Version 4 / Version 2
File size : 4.29 GiB
Duration : 58 min 34 s
Overall bit rate : 10.5 Mb/s
Movie name : Frozen.Planet.S01E03.2011.1080p.BluRay.AVC.8bit.DT S.x264-PATiPAT
Encoded date : UTC 2019-08-10 23:59:38
Writing application : mkvmerge v33.1.0 ('Primrose') 64-bit
Writing library : libebml v1.3.7 + libmatroska v1.5.0
Cover : Yes
Attachments : cover

Video
ID : 1
Format : AVC
Format/Info : Advanced Video Codec
Format profile : [email protected]
Format settings, CABAC : Yes
Format settings, RefFrames : 4 frames
Codec ID : V_MPEG4/ISO/AVC
Duration : 58 min 34 s
Bit rate : 8 194 kb/s
Width : 1 920 pixels
Height : 1 080 pixels
Display aspect ratio : 16:9
Frame rate mode : Constant
Frame rate : 25.000 FPS
Color space : YUV
Chroma subsampling : 4:2:0
Bit depth : 8 bits
Scan type : Progressive
Bits/(Pixel*Frame) : 0.158
Stream size : 3.35 GiB (78%)
Writing library : x264 core 120 r2120 0c7dab9
Encoding settings : cabac=1 / ref=4 / deblock=1:0:07
Default : Yes
Forced : No

Audio #1
ID : 2
Format : DTS
Format/Info : Digital Theater Systems
Mode : 16
Format settings, Endianness : Big
Codec ID : A_DTS
Duration : 58 min 34 s
Bit rate mode : Constant
Bit rate : 1 509 kb/s
Channel(s) : 6 channels
Channel positions : Front: L C R, Side: L R, LFE
Sampling rate : 48.0 kHz
Frame rate : 93.750 FPS (512 SPF)
Bit depth : 24 bits
Compression mode : Lossy
Stream size : 632 MiB (14%)
Language : English
Default : No
Forced : No

Audio #2
ID : 3
Format : AC-3
Format/Info : Audio Coding 3
Format settings, Endianness : Big
Codec ID : A_AC3
Duration : 58 min 34 s
Bit rate mode : Constant
Bit rate : 384 kb/s
Channel(s) : 6 channels
Channel positions : Front: L C R, Side: L R, LFE
Sampling rate : 48.0 kHz
Frame rate : 31.250 FPS (1536 SPF)
Bit depth : 16 bits
Compression mode : Lossy
Stream size : 161 MiB (4%)
Language : English
Service kind : Complete Main
Default : No
Forced : No

Audio #3
ID : 4
Format : AC-3
Format/Info : Audio Coding 3
Format settings, Endianness : Big
Codec ID : A_AC3
Duration : 58 min 34 s
Bit rate mode : Constant
Bit rate : 384 kb/s
Channel(s) : 6 channels
Channel positions : Front: L C R, Side: L R, LFE
Sampling rate : 48.0 kHz
Frame rate : 31.250 FPS (1536 SPF)
Bit depth : 16 bits
Compression mode : Lossy
Stream size : 161 MiB (4%)
Language : Thai
Service kind : Complete Main
Default : Yes
Forced : Yes

Text #1
ID : 5
Format : UTF-8
Codec ID : S_TEXT/UTF8
Codec ID/Info : UTF-8 Plain Text
Duration : 57 min 22 s
Bit rate : 44 b/s
Count of elements : 432
Stream size : 18.9 KiB (0%)
Language : English
Default : Yes
Forced : Yes

Text #2
ID : 6
Format : VobSub
Muxing mode : zlib
Codec ID : S_VOBSUB
Codec ID/Info : Picture based subtitle format used on DVDs
Duration : 57 min 22 s
Bit rate : 6 098 b/s
Count of elements : 431
Stream size : 2.50 MiB (0%)
Language : Thai
Default : No
Forced : No

Text #3
ID : 7
Format : VobSub
Muxing mode : zlib
Codec ID : S_VOBSUB
Codec ID/Info : Picture based subtitle format used on DVDs
Duration : 57 min 22 s
Bit rate : 7 824 b/s
Count of elements : 467
Stream size : 3.21 MiB (0%)
Language : English
Default : No
Forced : No

Menu
00:00:00.000 : en:00:00:00.000
00:10:36.480 : en:00:10:36.480
00:18:55.400 : en:00:18:55.400
00:32:07.880 : en:00:32:07.880
00:39:31.200 : en:00:39:31.200
00:48:41.440 : en:00:48:41.440



1
http://www.filecondo.com/dl.php?f=Z4ac5a1HYsd2
2
http://www.filecondo.com/dl.php?f=x4b83e1HYsfE
3
http://www.filecondo.com/dl.php?f=r61c831HYshA
4
http://www.filecondo.com/dl.php?f=Sef7641HYsjx
5
http://www.filecondo.com/dl.php?f=086aa61HYslv
6
http://www.filecondo.com/dl.php?f=q7fe891HYsod
7
http://www.filecondo.com/dl.php?f=ge31b81HYsqb
8
http://www.filecondo.com/dl.php?f=Iae2c81HYsrz