+ Reply to Thread
Results 1 to 3 of 3
  1. #1
    Administrators Duckload.us's Avatar
    Join Date
    Dec 2010
    Posts
    106,041
    Thanks
    9
    Thanked 109,970 Times in 51,393 Posts

    Question [NETFLIX] Sextuplets (2019) ὴ 6 ˡԹ [ҡ:ѧ][SUB:+ѧ][1080p] [AC-3+Atmos][h264][Ѻµ鹩ѺNETFLIX PGS+Vobsub ]








    Format : Matroska
    Format version : Version 4 / Version 2
    File size : 3.71 GiB
    Duration : 1 h 39 min
    Overall bit rate : 5 315 kb/s
    Movie name : [email protected]
    Encoded date : UTC 2019-08-16 10:29:00
    Writing application : mkvmerge v24.0.0 ('Beyond The Pale') 64-bit
    Writing library : libebml v1.3.6 + libmatroska v1.4.9

    Video
    ID : 1
    Format : AVC
    Format/Info : Advanced Video Codec
    Format profile : [email protected]
    Format settings, CABAC : Yes
    Format settings, RefFrames : 3 frames
    Codec ID : V_MPEG4/ISO/AVC
    Duration : 1 h 39 min
    Bit rate : 4 471 kb/s
    Width : 1 920 pixels
    Height : 1 080 pixels
    Display aspect ratio : 16:9
    Frame rate mode : Constant
    Frame rate : 24.000 FPS
    Color space : YUV
    Chroma subsampling : 4:2:0
    Bit depth : 8 bits
    Scan type : Progressive
    Bits/(Pixel*Frame) : 0.090
    Stream size : 3.12 GiB (84%)
    Default : Yes
    Forced : No
    Comment : NETFLIX BY ARGON

    Audio
    ID : 2
    Format : E-AC-3
    Format/Info : Enhanced Audio Coding 3
    Format profile : E-AC-3+Atmos / E-AC-3
    Format settings, Endianness : Big
    Codec ID : A_EAC3
    Duration : 1 h 39 min
    Bit rate mode : Constant
    Bit rate : 768 kb/s
    Channel(s) : 15 objects / 6 channels
    Channel positions : 15 objects / Front: L C R, Side: L R, LFE
    Sampling rate : 48.0 kHz
    Frame rate : 187.500 FPS (256 SPF)
    Compression mode : Lossy
    Stream size : 549 MiB (14%)
    Title : EN AC3
    Language : English
    Service kind : Complete Main
    Default : Yes
    Forced : No

    Text #1
    ID : 3
    Format : PGS
    Muxing mode : zlib
    Codec ID : S_HDMV/PGS
    Codec ID/Info : Picture based subtitle format used on BDs/HD-DVDs
    Duration : 1 h 39 min
    Bit rate : 34.8 kb/s
    Count of elements : 4076
    Stream size : 24.7 MiB (1%)
    Title : TH_PGS
    Language : Thai
    Default : Yes
    Forced : No

    Text #2
    ID : 4
    Format : VobSub
    Muxing mode : zlib
    Codec ID : S_VOBSUB
    Codec ID/Info : Picture based subtitle format used on DVDs
    Duration : 1 h 39 min
    Bit rate : 16.2 kb/s
    Count of elements : 2038
    Stream size : 11.5 MiB (0%)
    Title : TH_VOBSUB
    Language : Thai
    Default : No
    Forced : No

    Text #3
    ID : 5
    Format : VobSub
    Muxing mode : zlib
    Codec ID : S_VOBSUB
    Codec ID/Info : Picture based subtitle format used on DVDs
    Duration : 1 h 39 min
    Bit rate : 16.2 kb/s
    Count of elements : 2038
    Stream size : 11.5 MiB (0%)
    Title : TH_VOBSUB_YELLOW
    Language : Thai
    Default : No
    Forced : No

    Text #4
    ID : 6
    Format : PGS
    Muxing mode : zlib
    Codec ID : S_HDMV/PGS
    Codec ID/Info : Picture based subtitle format used on BDs/HD-DVDs
    Duration : 1 h 35 min
    Bit rate : 82.4 kb/s
    Count of elements : 4820
    Stream size : 56.1 MiB (1%)
    Title : EN_PGS
    Language : English
    Default : No
    Forced : No




    Download: cornfile
    http://cornfile.com/l0zkrbxgjfb9
    Download: mekafile
    http://www.mekafile.com/dl.php?f=kB0623bXQcp3

  2. The Following User Says Thank You to Duckload.us For This Useful Post:

    Wesker_TOT (08-17-2019)

  3. #2
    Senior Member
    Join Date
    Jun 2014
    Posts
    866
    Thanks
    0
    Thanked 0 Times in 0 Posts
    ͺسѺ

  4. #3
    Senior Member
    Join Date
    Dec 2013
    Posts
    1,760
    Thanks
    3,712
    Thanked 0 Times in 0 Posts
    ͺسФѺ...

Thread Information

Users Browsing this Thread

There are currently 1 users browsing this thread. (0 members and 1 guests)

     

Posting Permissions

  • You may not post new threads
  • You may not post replies
  • You may not post attachments
  • You may not edit your posts