+ Reply to Thread
Results 1 to 3 of 3
  1. #1
    Administrators Duckload.us's Avatar
    Join Date
    Dec 2010
    Posts
    106,041
    Thanks
    9
    Thanked 109,970 Times in 51,393 Posts

    Question []-[*V.1*] Crawl (2019) : ҹ [720p] [* HDCAM.THR2.0.x264 *] [ҡç 2.0 + §ѧ 2.0]



    720p.HDCAM.THR2.0.x264
    ҡç 2.0 + §ѧ 2.0


    Crawl ;हѴԴ ( ) ѺѧҹԴʹ㨤觻С;¾ ͡ѺҾ ( ) µ ;ѺҾҴ㹾鹷ع ҹ 駤١ثѴй鹷ҹ ҷ˹ըҡŧ о͵ͧ༪ԭѺдѺӷ٧ Шҹѡͺ!


    Format : Matroska
    Format version : Version 4
    File size : 2.12 GiB
    Duration : 1 h 24 min
    Overall bit rate : 3 590 kb/s
    Movie name : {ZoomV.1}_Crawl.2019.720p.HDCAM.THR2.0.x264._By [email protected]

    Video
    ID : 1
    Format : AVC
    Format/Info : Advanced Video Codec
    Format profile : [email protected]
    Format settings : CABAC / 6 Ref Frames
    Format settings, CABAC : Yes
    Format settings, Reference : 6 frames
    Codec ID : V_MPEG4/ISO/AVC
    Duration : 1 h 24 min
    Bit rate mode : Variable
    Bit rate : 2 980 kb/s
    Maximum bit rate : 18.4 Mb/s
    Width : 1 280 pixels
    Height : 578 pixels
    Display aspect ratio : 2.2:1
    Frame rate mode : Constant
    Frame rate : 29.970 (30000/1001) FPS
    Standard : Component
    Color space : YUV
    Chroma subsampling : 4:2:0
    Bit depth : 8 bits
    Scan type : Progressive
    Bits/(Pixel*Frame) : 0.134
    Stream size : 1.76 GiB (83%)
    Title : {ZoomV.1}_Crawl.2019.720p.HDCAM.THR2.0.x264._By [email protected]
    Language : English
    Default : Yes
    Forced : No
    Color range : Limited
    Color primaries : BT.709
    Transfer characteristics : BT.709
    Matrix coefficients : BT.709

    Audio #1
    ID : 2
    Format : AC-3
    Format/Info : Audio Coding 3
    Commercial name : Dolby Digital
    Codec ID : A_AC3
    Duration : 1 h 24 min
    Bit rate mode : Constant
    Bit rate : 384 kb/s
    Channel(s) : 2 channels
    Channel layout : L R
    Sampling rate : 48.0 kHz
    Frame rate : 31.250 FPS (1536 SPF)
    Bit depth : 16 bits
    Compression mode : Lossy
    Stream size : 232 MiB (11%)
    Title : ThaiRong 2.0 @ 384 kb/s By Mr.Captain
    Language : Thai
    Service kind : Complete Main
    Default : Yes
    Forced : No

    Audio #2
    ID : 3
    Format : AC-3
    Format/Info : Audio Coding 3
    Commercial name : Dolby Digital
    Codec ID : A_AC3
    Duration : 1 h 24 min
    Bit rate mode : Constant
    Bit rate : 224 kb/s
    Channel(s) : 2 channels
    Channel layout : L R
    Sampling rate : 48.0 kHz
    Frame rate : 31.250 FPS (1536 SPF)
    Bit depth : 16 bits
    Compression mode : Lossy
    Stream size : 135 MiB (6%)
    Title : English 2.0 @ 224 kb/s
    Language : English
    Service kind : Complete Main
    Default : No
    Forced : No





    Download: cornfile
    http://cornfile.com/1dyc9msub5hu
    Download: mekafile
    http://www.mekafile.com/dl.php?f=Hea9c0bXQcgV

  2. The Following User Says Thank You to Duckload.us For This Useful Post:

    Wesker_TOT (08-17-2019)

  3. #2
    Senior Member
    Join Date
    Jun 2014
    Posts
    866
    Thanks
    0
    Thanked 0 Times in 0 Posts
    ͺسѺ

  4. #3
    Senior Member
    Join Date
    Dec 2013
    Posts
    1,760
    Thanks
    3,712
    Thanked 0 Times in 0 Posts
    ...

    ͺسФѺ...

Thread Information

Users Browsing this Thread

There are currently 1 users browsing this thread. (0 members and 1 guests)

     

Posting Permissions

  • You may not post new threads
  • You may not post replies
  • You may not post attachments
  • You may not edit your posts