+ Reply to Thread
Results 1 to 4 of 4
  1. #1
    Administrators Duckload.us's Avatar
    Join Date
    Dec 2010
    Posts
    106,041
    Thanks
    9
    Thanked 109,970 Times in 51,393 Posts

    Question [ฝรั่ง]-[2019] Men in Black International.2019.1080p.READNFO.X264-EVO (เสียงไทยโรงโม)-WEB-DL.H.264.1080p. [Modified]-[พากย์ไทยโรง]







    Men in Black: International



    Rating: 5.6/10 Year: 2019 Genres: Action / Adventure / Comedy / Sci-Fi Runtime: 114 min Language: English / French Director: F. Gary Gray Writers: Matt Holloway / Art Marcum / Lowell Cunningham Cast: Chris Hemsworth / Tessa Thompson / Kumail Nanjianiโ€ฆ Plot:

    n/A


    เรื่องย่อ

    Men In Black: International หนังไซไฟคอเมดี้เรื่องนี้ได้ Chris Hemsworth และ Tessa Thompson นักแสดงคู่หูจาก Thor: Ragnarok กลับมาร่วมงานกันอีกครั้งในบท เจ้าหน้าที่ H และ M โดยเรื่องราวจะเป็นการแก้ไขคดีฆาตกรรมลึกลับที่ส่งผล กระทบไปทั่วโลก และมีความเกี่ยวพันกับเหล่าเอเลี่ยนที่อาศัยอยู่บนโล กด้วย ในภาคนี้นักแสดงหลักอย่างภาคก่อนอย่าง Tommy Lee Jones และ Will Smith จะไม่กลับมา แต่ทั้งคู่ก็ยังอยู่ในจักรวาลเดียวกันกับหนังเรื่องน ี้ โดยหากเราสังเกตดีๆในตัวอย่างเราจะเห็นรูปภาพของพวกเ ขาอยู่ด้วย




    File size : 4.97 GiB
    Duration : 1 h 54 min
    Overall bit rate : 6 224 kb/s
    Movie name : EVO
    Encoded date : UTC 2019-08-17 21:41:24
    Writing application : mkvmerge v36.0.0 ('Is That Jazz?') 64-bit
    Writing library : libebml v1.3.9 + libmatroska v1.5.2

    Video
    ID : 1
    Format : AVC
    Format/Info : Advanced Video Codec
    Format profile : [email protected]
    Format settings : CABAC / 4 Ref Frames
    Format settings, CABAC : Yes
    Format settings, Reference frames : 4 frames
    Codec ID : V_MPEG4/ISO/AVC
    Duration : 1 h 54 min
    Bit rate : 3 150 kb/s
    Width : 1 920 pixels
    Height : 896 pixels
    Display aspect ratio : 2.143
    Frame rate mode : Constant
    Frame rate : 25.000 FPS
    Color space : YUV
    Chroma subsampling : 4:2:0
    Bit depth : 8 bits
    Scan type : Progressive
    Bits/(Pixel*Frame) : 0.073
    Stream size : 2.52 GiB (51%)
    Default : Yes
    Forced : No
    Color range : Limited
    Color primaries : BT.709
    Transfer characteristics : BT.709
    Matrix coefficients : BT.709

    Audio
    ID : 2
    Format : PCM
    Format settings : Little
    Codec ID : A_PCM/FLOAT/IEEE
    Duration : 1 h 54 min
    Bit rate mode : Constant
    Bit rate : 3 072 kb/s
    Channel(s) : 2 channels
    Sampling rate : 48.0 kHz
    Frame rate : 32.000 FPS (1500 SPF)
    Bit depth : 32 bits
    Stream size : 2.45 GiB (49%)
    Default : Yes
    Forced : No












    Download: cornfile
    http://cornfile.com/4dy1k3i5mxn4
    Download: mekafile
    http://www.mekafile.com/dl.php?f=SOe9f5bXZPDm

  2. The Following 2 Users Say Thank You to Duckload.us For This Useful Post:

    Tellmon (08-21-2019), Wesker_TOT (08-21-2019)

  3. #2
    Senior Member
    Join Date
    Jun 2014
    Posts
    866
    Thanks
    0
    Thanked 0 Times in 0 Posts
    ขอบคุณครับ

  4. #3
    Senior Member
    Join Date
    Dec 2013
    Posts
    1,760
    Thanks
    3,712
    Thanked 0 Times in 0 Posts
    ขอบคุณนะครับ...

  5. #4
    Senior Member
    Join Date
    Oct 2013
    Posts
    1,578
    Thanks
    0
    Thanked 0 Times in 0 Posts
    ขอบคุณครับ

+ Reply to Thread

Thread Information

Users Browsing this Thread

There are currently 1 users browsing this thread. (0 members and 1 guests)

     

Posting Permissions

  • You may not post new threads
  • You may not post replies
  • You may not post attachments
  • You may not edit your posts