+ Reply to Thread
Results 1 to 2 of 2
  1. #1
    Administrators Duckload.us's Avatar
    Join Date
    Dec 2010
    Posts
    106,041
    Thanks
    9
    Thanked 109,970 Times in 51,393 Posts

    Question [ฝรั่ง]-ใหม่!! *** The Secret Life of Pets 2 -- เรื่องลับแก๊งขนฟู 2 *** จัดครบทั้งเสียงไทยโรง และ เสียงอังกฤษ AC-3 โดย ดีเจ อาท-WEB-DL.H.264.1080p. [Modified]-[พากย์ไทยโรง]



    The Secret Life of Pets 2 -- เรื่องลับแก๊งขนฟู 2

    พ.ศ. 2562 ‧ ผจญภัย/เรื่องตลก ‧ 1 ชม. 26 นาที

    คำอธิบาย
    แปลจากภาษาอังกฤษ-The Secret Life of Pets 2 เป็นภาพยนตร์การ์ตูนคอมมิวนิเคชั่นคอมพิวเตอร์แบบอเม ริกันอเมริกันปี 2019 ที่ผลิตโดย Illumination กำกับโดยคริสเรอโนลด์ซึ่งกำกับโดยโจนาธานเดลวาลและเข ียนโดย Brian Lynch เป็นผลสืบเนื่องของ The Secret Life of Pets และภาพยนตร์สารคดีเรื่องที่สองในแฟรนไชส์ ภาพยนตร์เรื่องนี้มีเสียงของ Patton Oswalt,

    วันที่ออกฉาย: 24 พฤษภาคม 2562 (ไอร์แลนด์)
    ผู้กำกับ: คริส โรโนด์

    ประพันธ์ดนตรีโดย: อเล็กซองดร์ เดส์ปลาต์

    บริษัทที่ผลิต: อิลลูมิเนชั่น เอ็นเตอร์เทนเมนต์

    ตัวละคร: โคลอี้, สโนว์บอล, เคธี่, Gidget, เลียม, Sweetpea, เมล, นอร์มัน, Buddy, แลร์รี, แม็กซ์, Rooster, Pops, เดซี่, Duke, ชัค

    นักแสดง

    เควิน ฮาร์ต
    สโนว์บอล

    เจนนี่ สเลต
    Gidget

    อีริค สโตนสตรีท
    Duke

    แพ็ทตัน ออสวอลท์
    แม็กซ์, แม็กซ์

    คริส โรโนด์
    นอร์มัน

    Format : Matroska
    Format version : Version 4 / Version 2
    File size : 1.91 GiB
    Duration : 1 h 26 min
    Overall bit rate : 3 173 kb/s
    Movie name : The Secret Life of Pets 2 2019 1080p WEB-DL DD 5.1 x264 [MW]
    Encoded date : UTC 2019-08-17 13:26:46
    Writing application : mkvmerge v36.0.0 ('Is That Jazz?') 64-bit
    Writing library : libebml v1.3.9 + libmatroska v1.5.2

    Video
    ID : 1
    Format : AVC
    Format/Info : Advanced Video Codec
    Format profile : [email protected]
    Format settings : CABAC / 4 Ref Frames
    Format settings, CABAC : Yes
    Format settings, ReFrames : 4 frames
    Codec ID : V_MPEG4/ISO/AVC
    Duration : 1 h 26 min
    Bit rate : 2 200 kb/s
    Width : 1 920 pixels
    Height : 1 036 pixels
    Display aspect ratio : 1.85:1
    Frame rate mode : Constant
    Frame rate : 23.976 (24000/1001) FPS
    Color space : YUV
    Chroma subsampling : 4:2:0
    Bit depth : 8 bits
    Scan type : Progressive
    Bits/(Pixel*Frame) : 0.046
    Stream size : 1.29 GiB (68%)
    Title : The Secret Life of Pets 2 2019 1080p WEB-DL DD 5.1 x264 [MW]
    Writing library : x264 core 157 r2935 545de2f
    Encoding settings : cabac=1 / ref=4 / deblock=1:0:0 / analyse=0x3:0x113 / me=hex / subme=7 / psy=1 / psy_rd=1.00:0.00 / mixed_ref=1 / me_range=16 / chroma_me=1 / trellis=1 / 8x8dct=1 / cqm=0 / deadzone=21,11 / fast_pskip=1 / chroma_qp_offset=-2 / threads=12 / lookahead_threads=2 / sliced_threads=0 / nr=0 / decimate=1 / interlaced=0 / bluray_compat=0 / constrained_intra=0 / bframes=4 / b_pyramid=2 / b_adapt=1 / b_bias=0 / direct=1 / weightb=1 / open_gop=0 / weightp=2 / keyint=240 / keyint_min=24 / scenecut=40 / intra_refresh=0 / rc_lookahead=30 / rc=abr / mbtree=1 / bitrate=2200 / ratetol=1.0 / qcomp=0.60 / qpmin=0 / qpmax=69 / qpstep=4 / vbv_maxrate=62500 / vbv_bufsize=78125 / nal_hrd=none / filler=0 / ip_ratio=1.40 / aq=1:1.00
    Default : Yes
    Forced : No
    Color range : Limited
    Color primaries : BT.709
    Transfer characteristics : BT.709
    Matrix coefficients : BT.709

    Audio #1
    ID : 2
    Format : AC-3
    Format/Info : Audio Coding 3
    Codec ID : A_AC3
    Duration : 1 h 26 min
    Bit rate mode : Constant
    Bit rate : 640 kb/s
    Channel(s) : 6 channels
    Channel positions : Front: L C R, Side: L R, LFE
    Sampling rate : 48.0 kHz
    Frame rate : 31.250 FPS (1536 SPF)
    Bit depth : 16 bits
    Compression mode : Lossy
    Stream size : 394 MiB (20%)
    Title : ThaiRong 5.1 @ 640 kb/s By Mr.Captain
    Language : Thai
    Service kind : Complete Main
    Default : No
    Forced : No

    Audio #2
    ID : 3
    Format : AC-3
    Format/Info : Audio Coding 3
    Codec ID : A_AC3
    Duration : 1 h 26 min
    Bit rate mode : Constant
    Bit rate : 384 kb/s
    Channel(s) : 6 channels
    Channel positions : Front: L C R, Side: L R, LFE
    Sampling rate : 48.0 kHz
    Frame rate : 31.250 FPS (1536 SPF)
    Bit depth : 16 bits
    Compression mode : Lossy
    Stream size : 236 MiB (12%)
    Title : English DD5.1 @ 384 kb/s
    Language : English
    Service kind : Complete Main
    Default : Yes
    Forced : No

    Text
    ID : 4
    Format : UTF-8
    Codec ID : S_TEXT/UTF8
    Codec ID/Info : UTF-8 Plain Text
    Duration : 1 h 26 min
    Bit rate : 77 b/s
    Count of elements : 1926
    Stream size : 48.6 KiB (0%)
    Title : English
    Language : English
    Default : Yes
    Forced : No

    Menu
    00:00:00.000 : en:1
    00:05:35.543 : en:2
    00:10:08.816 : en:3
    00:13:27.306 : en:4
    00:16:40.791 : en:5
    00:19:57.946 : en:6
    00:24:11.073 : en:7
    00:28:16.735 : en:8
    00:30:55.267 : en:9
    00:35:16.110 : en:10
    00:39:56.974 : en:11
    00:45:48.325 : en:12
    00:49:52.819 : en:13
    00:56:55.991 : en:14
    00:58:36.215 : en:15
    01:02:49.927 : en:16
    01:07:17.611 : en:17
    01:12:49.818 : en:18
    01:15:22.803 : en:19
    01:18:11.011 : en:20







    Download: cornfile
    http://cornfile.com/hfgnnjvhj1c3
    Download: mekafile
    http://www.mekafile.com/dl.php?f=gT3fbcbXZYFV

  2. The Following 2 Users Say Thank You to Duckload.us For This Useful Post:

    mettset (08-21-2019), Tellmon (08-21-2019)

  3. #2
    Senior Member
    Join Date
    Jun 2014
    Posts
    866
    Thanks
    0
    Thanked 0 Times in 0 Posts
    ขอบคุณครับ

+ Reply to Thread

Thread Information

Users Browsing this Thread

There are currently 1 users browsing this thread. (0 members and 1 guests)

     

Posting Permissions

  • You may not post new threads
  • You may not post replies
  • You may not post attachments
  • You may not edit your posts