+ Reply to Thread
Results 1 to 1 of 1
  1. #1
    Administrators Duckload.us's Avatar
    Join Date
    Dec 2010
    Posts
    106,041
    Thanks
    9
    Thanked 109,970 Times in 51,393 Posts

    Question []-[NETFLIX] El Camino Christmas (2017) ʵʷ ѡʴ Dax Shepard, Kurtwood Smith, Luke Grimes-HDTV.H.264.1080p. [Modified]-[Soundtrack ]





    Format : Matroska
    Format version : Version 4 / Version 2
    File size : 3.41 GiB
    Duration : 1 h 29 min
    Overall bit rate : 5 473 kb/s
    Movie name : [email protected]
    Encoded date : UTC 2019-08-15 11:57:03
    Writing application : mkvmerge v24.0.0 ('Beyond The Pale') 64-bit
    Writing library : libebml v1.3.6 + libmatroska v1.4.9

    Video
    ID : 1
    Format : AVC
    Format/Info : Advanced Video Codec
    Format profile : [email protected]
    Format settings, CABAC : Yes
    Format settings, RefFrames : 3 frames
    Codec ID : V_MPEG4/ISO/AVC
    Duration : 1 h 29 min
    Bit rate : 4 757 kb/s
    Width : 1 920 pixels
    Height : 1 080 pixels
    Display aspect ratio : 16:9
    Frame rate mode : Constant
    Frame rate : 23.976 (24000/1001) FPS
    Color space : YUV
    Chroma subsampling : 4:2:0
    Bit depth : 8 bits
    Scan type : Progressive
    Bits/(Pixel*Frame) : 0.096
    Stream size : 2.97 GiB (87%)
    Title : El.Camino.Christmas.2017
    Default : Yes
    Forced : No

    Audio
    ID : 2
    Format : E-AC-3
    Format/Info : Enhanced Audio Coding 3
    Format settings, Endianness : Big
    Codec ID : A_EAC3
    Duration : 1 h 29 min
    Bit rate mode : Constant
    Bit rate : 640 kb/s
    Channel(s) : 6 channels
    Channel positions : Front: L C R, Side: L R, LFE
    Sampling rate : 48.0 kHz
    Frame rate : 187.500 FPS (256 SPF)
    Compression mode : Lossy
    Delay relative to video : -41 ms
    Stream size : 409 MiB (12%)
    Title : EN AC3
    Language : English
    Service kind : Complete Main
    Default : Yes
    Forced : No

    Text #1
    ID : 3
    Format : PGS
    Muxing mode : zlib
    Codec ID : S_HDMV/PGS
    Codec ID/Info : Picture based subtitle format used on BDs/HD-DVDs
    Duration : 1 h 28 min
    Bit rate : 47.7 kb/s
    Count of elements : 2644
    Stream size : 30.1 MiB (1%)
    Title : TH_PGS
    Language : Thai
    Default : Yes
    Forced : No

    Text #2
    ID : 4
    Format : VobSub
    Muxing mode : zlib
    Codec ID : S_VOBSUB
    Codec ID/Info : Picture based subtitle format used on DVDs
    Duration : 1 h 28 min
    Bit rate : 9 584 b/s
    Count of elements : 1321
    Stream size : 6.06 MiB (0%)
    Title : TH_VOBSUB
    Language : Thai
    Default : No
    Forced : No

    Text #3
    ID : 5
    Format : VobSub
    Muxing mode : zlib
    Codec ID : S_VOBSUB
    Codec ID/Info : Picture based subtitle format used on DVDs
    Duration : 1 h 28 min
    Bit rate : 9 579 b/s
    Count of elements : 1321
    Stream size : 6.05 MiB (0%)
    Title : TH_VOBSUB_YELLOW
    Language : Thai
    Default : No
    Forced : No

    Text #4
    ID : 6
    Format : PGS
    Muxing mode : zlib
    Codec ID : S_HDMV/PGS
    Codec ID/Info : Picture based subtitle format used on BDs/HD-DVDs
    Duration : 1 h 28 min
    Bit rate : 66.2 kb/s
    Count of elements : 3094
    Stream size : 41.8 MiB (1%)
    Title : EN_PGS
    Language : English
    Default : No
    Forced : No









    Download: cornfile
    http://cornfile.com/5y5uqpihfhmr
    Download: mekafile
    http://www.mekafile.com/dl.php?f=mvcf2bbY4GR8

  2. The Following User Says Thank You to Duckload.us For This Useful Post:

    noi54 (08-26-2019)

Thread Information

Users Browsing this Thread

There are currently 1 users browsing this thread. (0 members and 1 guests)

     

Posting Permissions

  • You may not post new threads
  • You may not post replies
  • You may not post attachments
  • You may not edit your posts