+ Reply to Thread
Results 1 to 2 of 2
  1. #1
    Administrators Duckload.us's Avatar
    Join Date
    Dec 2010
    Posts
    106,041
    Thanks
    9
    Thanked 109,970 Times in 51,393 Posts

    Question [ฝรั่ง]-[*ใหม่*] Men in Black: International (2019) - เอ็มไอบี หน่วยจารชนสากลพิทักษ์โลก [1080p AMZN] [เสียงไทยมาสเตอร์ + เสียงอังกฤษ 5.1 Atmos] [บรรยายไทยมาสเตอร์ + อังกฤษ] [ซับ PGS, IDX, SRT]

    แจ้งเพื่อทราบ!
    เสียงไทย+ซับไทยมาสเตอร์จาก iTunes Thai
    พร้อมด้วยภาพและเสียงอังกฤษ 5.1 Atmos จาก Amazon








    เรื่องย่อ

    ผู้กำกับเล่าว่า “ใน MIB INTERNATIONAL คือภารกิจการกวาดล้างเอเลี่ยนครั้งใหม่ครั้งใหญ่กับเ หล่าผู้พิทักษ์เจนใหม่ล่าสุด เมื่อบุรุษชุดดำบางคนได้กลับกลายเป็นไส้ศึกในเอ็มไอบ ี ภารกิจสุดท้าทายการปราบวายร้ายในจักรวาลได้เริ่มต้นข ึ้นอีกครั้งแล้วครับ การกลับมาครั้งนี้เรามีทีมใหม่มาเสริมทัพครับ

    เริ่มจาก “คริส เฮมส์เวิร์ธ รับบท เอเจนท์ เอช” หนึ่งในเอเจนท์ที่เป็นที่ชื่นชอบมากที่สุดประจำสำนัก งานเอ็มไอบี กรุงลอนดอน เคยกอบกู้โลกมาแล้วครั้งหนึ่งจากเผ่าพันธุ์เอเลียนโฉ ดชั่วที่มี่ชื่อว่า “เดอะ ไฮฟ์” ครั้งนี้ เขาจะพบตัวเองอยู่ใจกลางการสืบสวนเรื่องของหนอนบ่อนไ ส้ภายในหน่วยงานของเขา

    “เทสซ่า ทอมป์สัน รับบท เอเจนท์ เอ็ม” เจ้าหน้าที่ใหม่ หลังจากที่เคยพบกับเอเลี่ยนและคนพิลึกในชุดสูทสีดำเม ื่อวัยเด็ก เธอก็ใช้เวลาอีก 20 ปีหลังจากนั้นเพื่อตามหาและเข้าร่วมงานกับ “เอ็มไอบี” หน่วยงานลับที่คอยจับตาดูการเคลื่อนไหวของเอเลี่ยนบน โลกใบนี้





    ข้อมูลภาพยนตร์

    General
    Unique ID : 282540309265781897874268352562745883147 (0xD48F48C20FAF59EA659B615E0810BA0B)
    Complete name : Men.in.Black.International.2019.1080p.AMZN.WEBRip. AAC.DDP5.1.Atmos.x264-jaideejung007.mkv
    Format : Matroska
    Format version : Version 4
    File size : 7.07 GiB
    Duration : 1 h 54 min
    Overall bit rate : 8 814 kb/s
    Movie name : Men.in.Black.International.2019.1080p.AMZN.WEBRip. AAC.DDP5.1.Atmos.x264-jaideejung007
    Encoded date : UTC 2019-08-22 03:53:08
    Writing application : mkvmerge v34.0.0 ('Sight and Seen') 64-bit
    Writing library : libebml v1.3.7 + libmatroska v1.5.0

    Video
    ID : 1
    Format : AVC
    Format/Info : Advanced Video Codec
    Format profile : [email protected]
    Format settings : CABAC / 4 Ref Frames
    Format settings, CABAC : Yes
    Format settings, Reference frames : 4 frames
    Codec ID : V_MPEG4/ISO/AVC
    Duration : 1 h 54 min
    Bit rate mode : Constant
    Bit rate : 8 088 kb/s
    Nominal bit rate : 10 000 kb/s
    Width : 1 920 pixels
    Height : 960 pixels
    Display aspect ratio : 2.000
    Frame rate mode : Constant
    Frame rate : 23.976 (24000/1001) FPS
    Color space : YUV
    Chroma subsampling : 4:2:0
    Bit depth : 8 bits
    Scan type : Progressive
    Bits/(Pixel*Frame) : 0.183
    Stream size : 6.49 GiB (92%)
    Title : Men.in.Black.International.2019.1080p.AMZN.WEBRip. AAC.DDP5.1.Atmos.x264-jaideejung007
    Language : English
    Default : Yes
    Forced : No
    Color range : Limited
    Color primaries : BT.709
    Transfer characteristics : BT.709
    Matrix coefficients : BT.709

    Audio #1
    ID : 2
    Format : AAC LC
    Format/Info : Advanced Audio Codec Low Complexity
    Codec ID : A_AAC-2
    Duration : 1 h 54 min
    Bit rate : 161 kb/s
    Channel(s) : 2 channels
    Channel layout : L R
    Sampling rate : 48.0 kHz
    Frame rate : 46.875 FPS (1024 SPF)
    Compression mode : Lossy
    Delay relative to video : 4 ms
    Stream size : 132 MiB (2%)
    Title : Thai Master
    Language : Thai
    Default : Yes
    Forced : Yes

    Audio #2
    ID : 3
    Format : E-AC-3 JOC
    Format/Info : Enhanced AC-3 with Joint Object Coding
    Commercial name : Dolby Digital Plus with Dolby Atmos
    Codec ID : A_EAC3
    Duration : 1 h 54 min
    Bit rate mode : Constant
    Bit rate : 448 kb/s
    Channel(s) : 6 channels
    Channel layout : L R C LFE Ls Rs
    Sampling rate : 48.0 kHz
    Frame rate : 31.250 FPS (1536 SPF)
    Compression mode : Lossy
    Delay relative to video : 1 s 43 ms
    Stream size : 368 MiB (5%)
    Title : English 5.1 Atmos
    Language : English
    Service kind : Complete Main
    Default : No
    Forced : No
    Complexity index : 16
    Number of dynamic objects : 15
    Bed channel count : 1 channel
    Bed channel configuration : LFE

    Text #1
    ID : 4
    Format : VobSub
    Codec ID : S_VOBSUB
    Codec ID/Info : Picture based subtitle format used on DVDs
    Duration : 1 h 53 min
    Bit rate : 3 088 b/s
    Count of elements : 1442
    Stream size : 2.51 MiB (0%)
    Title : Thai 480p
    Language : Thai
    Default : No
    Forced : No

    Text #2
    ID : 5
    Format : VobSub
    Codec ID : S_VOBSUB
    Codec ID/Info : Picture based subtitle format used on DVDs
    Duration : 1 h 53 min
    Bit rate : 6 054 b/s
    Count of elements : 1442
    Stream size : 4.92 MiB (0%)
    Title : Thai 720p
    Language : Thai
    Default : No
    Forced : No

    Text #3
    ID : 6
    Format : VobSub
    Codec ID : S_VOBSUB
    Codec ID/Info : Picture based subtitle format used on DVDs
    Duration : 1 h 53 min
    Bit rate : 10.8 kb/s
    Count of elements : 1442
    Stream size : 8.81 MiB (0%)
    Title : Thai 1080p
    Language : Thai
    Default : Yes
    Forced : Yes

    Text #4
    ID : 7
    Format : VobSub
    Codec ID : S_VOBSUB
    Codec ID/Info : Picture based subtitle format used on DVDs
    Duration : 1 h 53 min
    Bit rate : 10.8 kb/s
    Count of elements : 1442
    Stream size : 8.79 MiB (0%)
    Title : Thai 1080p Yellow
    Language : Thai
    Default : No
    Forced : No

    Text #5
    ID : 8
    Format : PGS
    Codec ID : S_HDMV/PGS
    Codec ID/Info : Picture based subtitle format used on BDs/HD-DVDs
    Duration : 1 h 53 min
    Bit rate : 42.4 kb/s
    Count of elements : 2884
    Stream size : 34.4 MiB (0%)
    Title : Thai PGS
    Language : Thai
    Default : No
    Forced : No

    Text #6
    ID : 9
    Format : PGS
    Codec ID : S_HDMV/PGS
    Codec ID/Info : Picture based subtitle format used on BDs/HD-DVDs
    Duration : 1 h 53 min
    Bit rate : 42.4 kb/s
    Count of elements : 2886
    Stream size : 34.4 MiB (0%)
    Title : Thai PGS OUT
    Language : Thai
    Default : No
    Forced : No

    Text #7
    ID : 10
    Format : UTF-8
    Codec ID : S_TEXT/UTF8
    Codec ID/Info : UTF-8 Plain Text
    Duration : 1 h 43 min
    Bit rate : 68 b/s
    Count of elements : 1706
    Stream size : 51.7 KiB (0%)
    Title : English
    Language : English
    Default : No
    Forced : No

    Text #8
    ID : 11
    Format : UTF-8
    Codec ID : S_TEXT/UTF8
    Codec ID/Info : UTF-8 Plain Text
    Duration : 1 h 53 min
    Bit rate : 68 b/s
    Count of elements : 2014
    Stream size : 56.6 KiB (0%)
    Title : English SDH
    Language : English
    Default : No
    Forced : No

    Menu
    00:00:00.000 : en:1
    00:07:57.000 : en:2
    00:15:31.000 : en:3
    00:20:07.000 : en:4
    00:27:14.000 : en:5
    00:34:26.000 : en:6
    00:46:06.000 : en:7
    00:50:28.000 : en:8
    00:58:56.000 : en:9
    01:03:08.000 : en:10
    01:10:46.000 : en:11
    01:14:30.000 : en:12
    01:25:25.000 : en:13
    01:28:43.000 : en:14
    01:34:22.000 : en:15
    01:43:24.000 : en:16





    ภาพตัวอย่าง แคปจากตัวไฟล์ภาพยนตร์




    ตัวอย่างภาพยนตร์




    เล่าสู่กันฟัง
    บรรยายไทยโดย iTunes Master
    เรียบเรียง/พิสูจน์อักษรโดย jaideejung007


    7.07 GB
    Download: cornfile
    http://cornfile.com/myaornemiiqy
    Download: mekafile
    http://www.mekafile.com/dl.php?f=Ci9248bY4Kav

    4.5 GB
    Download: cornfile
    http://cornfile.com/o7u5sh51srpr
    Download: mekafile
    http://www.mekafile.com/dl.php?f=oNd85cbY4GjI

    4.6 GB
    Download: cornfile
    http://cornfile.com/l8v94m0s71rr
    Download: mekafile
    http://www.mekafile.com/dl.php?f=ji37d7bY58oU

    2.0 GB
    Download: cornfile
    http://cornfile.com/fmuxc4lx1bwo
    Download: mekafile
    http://www.mekafile.com/dl.php?f=AZf750bY5ro2

  2. The Following 4 Users Say Thank You to Duckload.us For This Useful Post:

    apichartdear (08-22-2019), bigbang06 (08-22-2019), kenata (08-23-2019), Wesker_TOT (08-23-2019)

  3. #2
    Senior Member
    Join Date
    Dec 2013
    Posts
    1,760
    Thanks
    3,712
    Thanked 0 Times in 0 Posts
    ขอบคุณครับ...

+ Reply to Thread

Thread Information

Users Browsing this Thread

There are currently 1 users browsing this thread. (0 members and 1 guests)

     

Posting Permissions

  • You may not post new threads
  • You may not post replies
  • You may not post attachments
  • You may not edit your posts