+ Reply to Thread
Results 1 to 3 of 3
  1. #1
    Administrators Duckload.us's Avatar
    Join Date
    Dec 2010
    Posts
    106,041
    Thanks
    9
    Thanked 109,970 Times in 51,393 Posts

    Red face [ฝรั่ง]-[* V.1 *] Angel Has Fallen (2019) : ผ่ายุทธการ ดับแผนอหังการ์ [720p] [* HDCAM.THR2.0.x264 *] [พากย์ไทยโรง 2.0 + เสียงอังกฤษ 2.0]



    ••• 720p.HDCAM.THR2.0.x264 •••
    พากย์ไทยโรง 2.0 + เสียงอังกฤษ 2.0

    Angel Has Fallen เมื่อเจ้าหน้าที่หน่วยสืบราชการลับ ไมค์ แบนนิ่ง (เจอราร์ด บัตเลอร์) และประธานาธิบดี อัลลัน ทรัมบูล (มอร์แกน ฟรีแมน) ถูกโจมตีจากกลุ่มก่อการร้ายแม้รอดชีวิตมาได้ แต่กลับกลายเป็นว่า ไมค์ แบนนิ่งถูกตั้งข้อหาพยายามสังหารประธานาธิบดีเสียเอง

    เขาจึงหลบหนีจากการไล่ล่าของเจ้าหน้าที่พร้อมกับต้อง ตามล่าตัวการเพื่อล้างมลทินและปกป้องประธานาธิบดีที่ กำลังตกอยู่ในอันตรายจากทั้งฝ่ายรัฐบาลและผู้ก่อการร ้ายระดับพระกาฬอีกครั้ง!

    Format : Matroska
    Format version : Version 4
    File size : 1.91 GiB
    Duration : 1 h 50 min
    Overall bit rate : 2 483 kb/s
    Movie name : {ZoomV.1}_Angel.Has.Fallen.2019.720p.HDCAM.THR2.0. x264._By [email protected]

    Video
    ID : 1
    Format : AVC
    Format/Info : Advanced Video Codec
    Format profile : [email protected]
    Format settings : CABAC / 2 Ref Frames
    Format settings, CABAC : Yes
    Format settings, Reference : 2 frames
    Codec ID : V_MPEG4/ISO/AVC
    Duration : 1 h 50 min
    Bit rate : 1 968 kb/s
    Width : 1 280 pixels
    Height : 536 pixels
    Display aspect ratio : 2.40:1
    Frame rate mode : Constant
    Frame rate : 30.000 FPS
    Color space : YUV
    Chroma subsampling : 4:2:0
    Bit depth : 8 bits
    Scan type : Progressive
    Bits/(Pixel*Frame) : 0.096
    Stream size : 1.52 GiB (79%)
    Title : {ZoomV.1}_Angel.Has.Fallen.2019.720p.HDCAM.THR2.0. x264._By [email protected]
    Writing library : Lavc58.35.100 h264_qsv
    Language : English
    Default : Yes
    Forced : No

    Audio #1
    ID : 2
    Format : AC-3
    Format/Info : Audio Coding 3
    Commercial name : Dolby Digital
    Codec ID : A_AC3
    Duration : 1 h 50 min
    Bit rate mode : Constant
    Bit rate : 384 kb/s
    Channel(s) : 2 channels
    Channel layout : L R
    Sampling rate : 48.0 kHz
    Frame rate : 31.250 FPS (1536 SPF)
    Bit depth : 16 bits
    Compression mode : Lossy
    Stream size : 303 MiB (15%)
    Title : ThaiRong 2.0 @ 384 kb/s By Mr.Captain
    Language : Thai
    Service kind : Complete Main
    Default : Yes
    Forced : Yes

    Audio #2
    ID : 3
    Format : AAC LC
    Format/Info : Advanced Audio Codec Low Complexity
    Codec ID : A_AAC-2
    Duration : 1 h 50 min
    Bit rate : 128 kb/s
    Channel(s) : 2 channels
    Channel layout : L R
    Sampling rate : 48.0 kHz
    Frame rate : 46.875 FPS (1024 SPF)
    Compression mode : Lossy
    Stream size : 101 MiB (5%)
    Title : English 2.0 @ 48.0 kHz
    Writing library : Lavc58.35.100 aac
    Language : English
    Default : No
    Forced : No





    Download: cornfile
    http://cornfile.com/622t1yz22643
    Download: mekafile
    meka อัพไม่ได้ครับ หนังค่าย M

  2. The Following 2 Users Say Thank You to Duckload.us For This Useful Post:

    noi54 (08-26-2019), Wesker_TOT (08-25-2019)

  3. #2
    Senior Member
    Join Date
    Jun 2014
    Posts
    866
    Thanks
    0
    Thanked 0 Times in 0 Posts
    ขอบคุณครับ

  4. #3
    Senior Member
    Join Date
    Dec 2013
    Posts
    1,760
    Thanks
    3,712
    Thanked 0 Times in 0 Posts
    ขอบคุณนะครับ...

+ Reply to Thread

Thread Information

Users Browsing this Thread

There are currently 1 users browsing this thread. (0 members and 1 guests)

     

Posting Permissions

  • You may not post new threads
  • You may not post replies
  • You may not post attachments
  • You may not edit your posts