+ Reply to Thread
Results 1 to 5 of 5
  1. #1
    Administrators Duckload.us's Avatar
    Join Date
    Dec 2010
    Posts
    106,041
    Thanks
    9
    Thanked 109,970 Times in 51,393 Posts

    Question [ฝรั่ง]-[ใหม่!!]*** Batman: Hush 2019 *** พร้อมเสียงไทยมาสเตอร์ โดย ดีเจ อาท-4K Blu-ray.H.265.2160p. [Master]-[พากย์ไทย]





    Batman: Hush
    ภาพยนตร์ปี พ.ศ. 2562

    คำอธิบาย
    Batman: Hush เป็นภาพยนตร์ซูเปอร์ฮีโร่แบบวิดีโอ direct-to-video ของอเมริกาปี 2019 อิงตามแนวเรื่องหนังสือการ์ตูนที่มีชื่อเดียวกันและเ ป็นซีรีส์ที่ 13 ของ DC Animated Movie Universe และภาพยนตร์เรื่องที่ 35 โดยรวมในภาพยนตร์ DC Universe Animated Original Movies

    วันที่ฉายครั้งแรก: 20 กรกฎาคม 2562

    ผู้กำกับ: Justin Copeland

    ดีวิดีวางตลาดเมื่อ: 20 กรกฎาคม 2562 (อเมริกา)

    อิงตาม: Batman: Hush by: เจป โลบ จิม ลี

    บริษัทผลิต: Warner Bros. Animation ดีซีคอมิกส์

    นักแสดง

    เจนนิเฟอร์ มอร์ริสัน
    แคทวูแมน

    เจสัน โอ’มารา
    แบทแมน

    เพย์ตัน ลิสต์
    บาร์บาร่า กอร์ดอน

    เรนน์ วิลสัน

    รีเบ็คก้า โรเมน

    Batman: Hush (2002-2003)

    Writer: Jeph Loeb
    Artist: Jim Lee

    จุดเริ่มต้นของ Batman: Hush เริ่มขึ้นเมื่อวายร้ายลึกลับคนใหม่นามว่า Hush ปรากฏตัวขึ้นในเมือง Gotham คอยยุยงปลุกปั่นเหล่าวายร้ายตัวฉกาจคนอื่นๆทั้ง Joker, Poison Ivy, Killer Croc, Riddler, Harley Quinn ออกมาสร้างความวุ่นวายโกลาหล แม้กระทั่งทำให้บุรุษเหล็ก Superman หันมาเล่นงานอัศวินรัตติกาล Batman ได้, และหนำซ้ำวายร้ายลึกลับนามว่า Hush คนนี้ยังอ้างว่ารู้ความลับเรื่องตัวตนที่แท้จริงของ Batman อีกด้วย

    ซึ่งนอกจาก Batman จะต้องเผชิญศึกหนักกับการผนึกกำลังใหญ่ของเหล่าวายร้ ายอย่างที่ไม่เคยมีมาก่อนแล้ว Batman ยังจะต้องประคับประคองรักษาความสัมพันธ์รักของเขากับ Selina Kyle (Catwoman) ไว้, ซึ่ง Batman ได้เปิดเผยตัวตนที่แท้จริงต่อเธอในคอมมิคเล่มนี้และไ ด้คบหาเป็นคนรักกัน แต่การต้องเผชิญศึกกับ Hush ในครั้งนี้ มันทำให้ความเชื่อใจที่มีให้กันของทั้งคู่ค่อยๆลดหาย ไปทีละน้อย

    Batman: Hush คือศึกครั้งใหญ่ของอัศวินรัตติกาล ปะทะการผนึกกำลังของเหล่าวายร้ายตัวฉกาจ ที่ยิ่งใหญ่และไม่ได้พบเห็นกันง่ายๆ, ปกติถ้าไม่ใช่การ Crossover หรือ Event ใหญ่ๆ จะแทบไม่มีทางได้เห็นการรวมตัวของตัวละครฝั่ง Bat-Family และเหล่าวายร้าย มากหน้าหลายตาขนาดนี้ในหัวคอมมิคของฮีโร่ตัวเดี่ยวๆ และปัญหายากยิ่งที่ตามมาคือ การวางเนื้อเรื่อง-การจัดสรรบทตัวละครมากมายขนาดนี้ให้ลงตัว และไม่แย่งซีนตัวเอกหลักของหัวเล่มคอมมิคอย่าง Batman

    ซึ่ง Jeph Loeb ได้สร้างสรรค์ออกมาได้ลงตัว สนุกเข้มข้นน่าติดตามอย่างไม่น่าเชื่อ และบวกกับงานภาพอันวิจิตรงดงามของ Jim Lee นักวาดภาพประกอบแนวหน้าอันดับต้นๆในวงการคอมมิคซุปเป อร์ฮีโร่ ยิ่งทำให้เนื้อเรื่องที่ดีมากอยู่แล้ว ทรงพลังเพิ่มขึ้นทวีคูณ


    Format : Matroska
    Format version : Version 4 / Version 2
    File size : 2.74 GiB
    Duration : 1 h 22 min
    Overall bit rate : 4 784 kb/s
    Movie name : Batman: Hush (2019) (2160p) [SAMPA]
    Encoded date : UTC 2019-08-23 13:30:21
    Writing application : mkvmerge v36.0.0 ('Is That Jazz?') 64-bit
    Writing library : libebml v1.3.9 + libmatroska v1.5.2
    Cover : Yes
    Attachments : cover.jpg
    Writing frontend : StaxRip v2.0.2.0

    Video
    ID : 1
    Format : HEVC
    Format/Info : High Efficiency Video Coding
    Commercial name : HDR10
    Format profile : Main [email protected]@Main
    Codec ID : V_MPEGH/ISO/HEVC
    Duration : 1 h 22 min
    Bit rate : 3 524 kb/s
    Width : 3 840 pixels
    Height : 2 160 pixels
    Display aspect ratio : 16:9
    Frame rate mode : Constant
    Frame rate : 23.976 (24000/1001) FPS
    Color space : YUV
    Chroma subsampling : 4:2:0
    Bit depth : 10 bits
    Bits/(Pixel*Frame) : 0.018
    Stream size : 2.02 GiB (74%)
    Writing library : x265 3.1+2-g764455672+26:[Windows][GCC 8.3.0][64 bit] Yuuki 10bit
    Encoding settings : rc=crf / crf=16.0000 / qcomp=0.60 / qpstep=4 / stats-write=0 / stats-read=0 / no-lossless / no-cu-lossless / aq-mode=2 / aq-strength=0.80 / cbqpoffs=0 / crqpoffs=0 / ipratio=1.40 / pbratio=1.30 / psy-rd=0.80 / psy-rdoq=1.50 / deblock=1:1 / ref=3 / limit-refs=3 / limit-modes / bframes=4 / b-adapt=2 / bframe-bias=0 / b-pyramid / no-b-intra / weightp / no-weightb / min-keyint=23 / max-keyint=250 / rc-lookahead=50 / gop-lookahead=0 / scenecut=40 / radl=0 / max-cu-size=64 / min-cu-size=8 / me=3 / subme=4 / merange=57 / rdoq-level=2 / rd=4 / rdpenalty=0 / dynamic-rd=0.00 / no-rd-refine / ----- / cutree / sao / rect / no-amp / open-gop / wpp / no-pmode / no-pme / no-psnr / no-ssim / nr-intra=0 / nr-inter=0 / no-constrained-intra / strong-intra-smoothing / max-tu-size=32 / tu-inter-depth=1 / tu-intra-depth=1 / limit-tu=0 / qg-size=32 / qpmax=69 / qpmin=0 / ----- / cpuid=1049583 / frame-threads=6 / numa-pools=16,16 / log-level=2 / input-csp=1 / input-res=3840x2160 / interlace=0 / level-idc=0 / high-tier=1 / uhd-bd=0 / no-allow-non-conformance / repeat-headers / aud / no-hrd / info / hash=0 / no-temporal-layers / lookahead-slices=4 / no-splice / no-intra-refresh / no-ssim-rd / signhide / no-tskip / max-merge=3 / temporal-mvp / no-analyze-src-pics / no-sao-non-deblock / no-early-skip / rskip / no-fast-intra / no-tskip-fast / no-splitrd-skip / zone-count=0 / no-strict-cbr / no-rc-grain / no-const-vbv / sar=0 / overscan=0 / videoformat=5 / range=0 / colorprim=9 / transfer=16 / colormatrix=9 / chromaloc=0 / display-window=0 / master-display=G(13250,34500)B(7500,3000)R(34000,16000)WP (15635,16450)L(10000000,1)cll=658,265 / min-luma=0 / max-luma=1023 / log2-max-poc-lsb=8 / vui-timing-info / vui-hrd-info / slices=1 / no-opt-qp-pps / no-opt-ref-list-length-pps / no-multi-pass-opt-rps / scenecut-bias=0.03 / no-opt-cu-delta-qp / no-aq-motion / hdr / hdr-opt / no-dhdr10-opt / no-idr-recovery-sei / analysis-reuse-level=5 / scale-factor=0 / refine-intra=0 / refine-inter=0 / refine-mv=0 / refine-ctu-distortion=0 / no-limit-sao / ctu-info=0 / no-lowpass-dct / refine-analysis-type=0 / copy-pic=1 / max-ausize-factor=1.0 / no-dynamic-refine / no-single-sei / no-hevc-aq / no-svt / no-field / qp-adaptation-range=1.00
    Default : Yes
    Forced : No
    Color range : Limited
    Color primaries : BT.2020
    Transfer characteristics : PQ
    Matrix coefficients : BT.2020 non-constant
    Mastering display color pri : BT.709
    Mastering display luminance : min: 0.0001 cd/m2, max: 1000 cd/m2
    Maximum Content Light Level : 658 cd/m2
    Maximum Frame-Average Light : 265 cd/m2

    Audio #1
    ID : 2
    Format : AAC
    Format/Info : Advanced Audio Codec
    Format profile : LC
    Codec ID : A_AAC-2
    Duration : 1 h 22 min
    Bit rate : 484 kb/s
    Channel(s) : 6 channels
    Channel positions : Front: L C R, Side: L R, LFE
    Sampling rate : 48.0 kHz
    Frame rate : 46.875 FPS (1024 SPF)
    Compression mode : Lossy
    Delay relative to video : 20 ms
    Stream size : 284 MiB (10%)
    Title : English (5.1)
    Language : English
    Default : No
    Forced : No

    Audio #2
    ID : 3
    Format : AC-3
    Format/Info : Audio Coding 3
    Codec ID : A_AC3
    Duration : 1 h 22 min
    Bit rate mode : Constant
    Bit rate : 640 kb/s
    Channel(s) : 6 channels
    Channel positions : Front: L C R, Side: L R, LFE
    Sampling rate : 48.0 kHz
    Frame rate : 31.250 FPS (1536 SPF)
    Bit depth : 16 bits
    Compression mode : Lossy
    Stream size : 375 MiB (13%)
    Title : English (Dolby Digital)
    Language : English
    Service kind : Complete Main
    Default : No
    Forced : No

    Audio #3
    ID : 5
    Format : AAC
    Format/Info : Advanced Audio Codec
    Format profile : LC
    Codec ID : A_AAC-2
    Duration : 1 h 22 min
    Bit rate : 128 kb/s
    Channel(s) : 2 channels
    Channel positions : Front: L R
    Sampling rate : 44.1 kHz
    Frame rate : 43.066 FPS (1024 SPF)
    Compression mode : Lossy
    Stream size : 75.1 MiB (3%)
    Title : เสียงไทยมาสเตอร์
    Language : Thai
    Default : Yes
    Forced : Yes

    Text
    ID : 4
    Format : VobSub
    Muxing mode : zlib
    Codec ID : S_VOBSUB
    Codec ID/Info : Picture based subtitle format used on DVDs
    Duration : 1 h 17 min
    Bit rate : 9 367 b/s
    Count of elements : 1172
    Stream size : 5.21 MiB (0%)
    Language : English
    Default : No
    Forced : No

    Menu
    00:00:00.000 : en:Chapter 01
    00:09:59.640 : en:Chapter 02
    00:18:57.219 : en:Chapter 03
    00:28:53.940 : en:Chapter 04
    00:37:32.750 : en:Chapter 05
    00:44:44.473 : en:Chapter 06
    00:50:49.546 : en:Chapter 07
    00:59:12.966 : en:Chapter 08
    01:07:58.908 : en:Chapter 09
    01:16:19.116 : en:Chapter 10
    01:18:54.312 : en:Chapter 11







    Download: cornfile
    http://cornfile.com/5huzvc0n7idi
    Download: mekafile
    http://www.mekafile.com/dl.php?f=a769d4bYadOS

  2. The Following 2 Users Say Thank You to Duckload.us For This Useful Post:

    apichartdear (08-25-2019), spiderpud2 (09-08-2019)

  3. #2
    Senior Member
    Join Date
    Jun 2014
    Posts
    866
    Thanks
    0
    Thanked 0 Times in 0 Posts
    ขอบคุณครับ

  4. #3
    Senior Member
    Join Date
    Dec 2013
    Posts
    1,760
    Thanks
    3,712
    Thanked 0 Times in 0 Posts
    ขอบคุณนะครับ...

  5. #4
    Senior Member
    Join Date
    Jul 2012
    Posts
    6,144
    Thanks
    0
    Thanked 0 Times in 0 Posts
    ขอบคุณมากจ้า

  6. #5
    Junior Member
    Join Date
    Apr 2012
    Posts
    9
    Thanks
    0
    Thanked 0 Times in 0 Posts
    ขอบคุณคร้าบบบบ

+ Reply to Thread

Thread Information

Users Browsing this Thread

There are currently 1 users browsing this thread. (0 members and 1 guests)

     

Posting Permissions

  • You may not post new threads
  • You may not post replies
  • You may not post attachments
  • You may not edit your posts