+ Reply to Thread
Results 1 to 2 of 2
  1. #1
    Administrators Duckload.us's Avatar
    Join Date
    Dec 2010
    Posts
    106,102
    Thanks
    9
    Thanked 110,020 Times in 51,411 Posts

    Question (..ҡ)-THE BEST OF ENEMIES (2019) ͹ҧ [Super HQ]-[BluRay.1080p.X264][ Sound:Eng DTS 5.1 & AAC 2.0/Thai AC3 5.1][ SUB:Eng*SRT*]



    Civil rights activist Ann Atwater faces off against C.P. Ellis, Exalted Cyclops of the Ku Klux Klan, in 1971 Durham, North Carolina over the issue of school integration.


    ͹ѡ͹ǴҹԷԾͧ༪ԭ վ ѡ䫤ͻͧ٤ѡŹ 2514 Ź㹻ͧç¹


    Format : Matroska
    Format version : Version 4
    File size : 4.51 GiB
    Duration : 2 h 13 min
    Overall bit rate : 4 826 kb/s
    Movie name : The Best Of Enemies (2019) BluRay 1080p- [SUPER HQ][email protected] CUP
    Cover : Yes
    Attachments : cover.jpg

    Video
    ID : 1
    Format : AVC
    Format/Info : Advanced Video Codec
    Format profile : [email protected]
    Format settings : CABAC / 1 Ref Frames
    Format settings, CABAC : Yes
    Format settings, Reference : 1 frame
    Format settings, GOP : M=1, N=25
    Codec ID : V_MPEG4/ISO/AVC
    Duration : 2 h 13 min
    Bit rate mode : Constant
    Bit rate : 3 400 kb/s
    Width : 1 920 pixels
    Height : 800 pixels
    Display aspect ratio : 2.40:1
    Frame rate mode : Constant
    Frame rate : 29.970 (30000/1001) FPS
    Color space : YUV
    Chroma subsampling : 4:2:0
    Bit depth : 8 bits
    Scan type : Progressive
    Bits/(Pixel*Frame) : 0.074
    Stream size : 3.17 GiB (70%)
    Title : The Best Of Enemies (2019) BluRay 1080p- [SUPER HQ][email protected] CUP
    Language : English
    Default : Yes
    Forced : No

    Audio #1
    ID : 2
    Format : AC-3
    Format/Info : Audio Coding 3
    Commercial name : Dolby Digital
    Codec ID : A_AC3
    Duration : 2 h 13 min
    Bit rate mode : Constant
    Bit rate : 320 kb/s
    Channel(s) : 6 channels
    Channel layout : L R C LFE Ls Rs
    Sampling rate : 44.1 kHz
    Frame rate : 28.711 FPS (1536 SPF)
    Bit depth : 16 bits
    Compression mode : Lossy
    Stream size : 306 MiB (7%)
    Title : 5.1 AC3 THAI 320K 306M
    Language : Thai
    Service kind : Complete Main
    Default : Yes
    Forced : No

    Audio #2
    ID : 3
    Format : DTS
    Format/Info : Digital Theater Systems
    Codec ID : A_DTS
    Duration : 2 h 13 min
    Bit rate mode : Constant
    Bit rate : 911 kb/s
    Channel(s) : 6 channels
    Channel layout : C L R Ls Rs LFE
    Sampling rate : 11.025 kHz
    Frame rate : 10.767 FPS (1024 SPF)
    Bit depth : 16 bits
    Compression mode : Lossy
    Stream size : 872 MiB (19%)
    Title : DTS 5.1 ENG 11025-872M
    Language : English
    Default : No
    Forced : No

    Audio #3
    ID : 4
    Format : AAC LC
    Format/Info : Advanced Audio Codec Low Complexity
    Codec ID : A_AAC-2
    Duration : 2 h 13 min
    Bit rate : 192 kb/s
    Channel(s) : 2 channels
    Channel layout : L R
    Sampling rate : 44.1 kHz
    Frame rate : 43.066 FPS (1024 SPF)
    Compression mode : Lossy
    Stream size : 186 MiB (4%)
    Title : 2.0 AAC 192K 186M
    Language : English
    Default : No
    Forced : No

    Text #1
    ID : 5
    Format : UTF-8
    Codec ID : S_TEXT/UTF8
    Codec ID/Info : UTF-8 Plain Text
    Duration : 2 h 5 min
    Bit rate : 59 b/s
    Count of elements : 1578
    Stream size : 55.1 KiB (0%)
    Title : SRT
    Language : English
    Default : Yes
    Forced : No

    Text #2
    ID : 6
    Format : UTF-8
    Codec ID : S_TEXT/UTF8
    Codec ID/Info : UTF-8 Plain Text
    Duration : 2 h 6 min
    Bit rate : 63 b/s
    Count of elements : 1725
    Stream size : 59.0 KiB (0%)
    Title : SRT-Hearing Impaired=麡ͧҧ§
    Language : English
    Default : No
    Forced : No





    Download: cornfile
    http://cornfile.com/4uxtbaw5n3ae
    Download: mekafile
    http://www.mekafile.com/dl.php?f=1q3a7dbYcL3J

  2. The Following User Says Thank You to Duckload.us For This Useful Post:

    noi54 (08-26-2019)

  3. #2
    Senior Member
    Join Date
    Jun 2014
    Posts
    866
    Thanks
    0
    Thanked 0 Times in 0 Posts
    ͺسѺ

Thread Information

Users Browsing this Thread

There are currently 1 users browsing this thread. (0 members and 1 guests)

     

Posting Permissions

  • You may not post new threads
  • You may not post replies
  • You may not post attachments
  • You may not edit your posts