มนุษย์ที่เติบโตมาในเมืองที่เต็มไปด้วยสิ่งมีชีวิตจา กเทพนิยาย แต่แล้วก็เกิดสงครามขึ้นระหว่างมนุษย์กับเหล่าสิ่งมี ชีวิตที่แตกต่าง ทำให้สิ่งมีชีวิตเหล่านี้ต้องลี้ภัยไปอยู่ในเมืองที่ เป็นชื่อของซีรี่ส์ และฟิลโลก็ไปทำงานเป็นตำรวจนักสืบอยู่ที่นั่น ฟิลโลได้พบรักกับแฟรี่ที่รับบทโดยคาร่า เดเลอวีน แต่ทั้งคู่ต้องปกปิดความสัมพันธ์เอาไว้เพราะมีกฎห้าม ให้สองเผ่าพันธุ์รักกัน เรื่องราวซับซ้อนยิ่งขึ้นเมื่อแฟรี่สาวผู้นี้ได้กุมค วามลับบางอย่างที่มีผลอาจทำลายโลกของฟิลโลได้
.
.
ผลงานเขียนของ ทราวิส บีแชม ที่เคยร่างบทหนัง Pacific Rim มาแล้ว ในเรื่องนี้ทราวิสเขียนเรื่องราวจากจินตนาการได้บรรเ จิดมาก เขาเล่าเรื่องราวของโลกสมมติที่บรรดาสิ่งมีชีวิตในเท พนิยายมีตัวตนจริงและอาศัยร่วมกับมนุษย์ คารา เดเลวีญ รับบท วิกเนตต์ สโตนมอส ภูติสาว ชีวิตเธอต้องพบกับวันหายนะ เมื่อโลกมนุษย์ส่งกองทหารเข้าไปยึดครองพื้นที่ในโลกเ วทมนตร์และขับไล่บรรดาภูติออกมาหมดสิ้น เธอต้องระหกระเหเร่ร่อนมาอาศัยอยู่ในเมือง คาร์นิวัล โรว์ ในฐานะผู้ลี้ภัย วิกเนตต์ เคยมีคนรักชื่อ “ไฟโล” เป็นทหารจากโลกมนุษย์ แต่ก็พลัดพลาดจากกันไปในวันที่ทหารบุกรุกบ้านเกิดของ เธอ และเธอคิดว่าไฟโลได้เสียชีวิตไปแล้วในวันนั้น วิกเนตต์ดำเนินชีวิตลำบากมากในเมืองคาร์นิวัล โรว์ เพราะผู้คนที่เมืองนี้ไม่ยินดีต้อนรับภูติอย่างเธอ ทำให้เธอหางานทำเพื่อประคองชีพได้ยากมาก แต่แล้ววันหนึ่งเธอก็พบเรื่องราวไม่คาดฝัน นั่นก็คือเธอได้พบกับ “ไฟโล” อีกครั้ง ในวันนี้เขากลายเป็นนักสืบ ผู้เชี่ยวชาญในคดีฆาตกรรมที่เกี่ยวพันกับสิ่งมีชีวิต จากโลกเวทมนตร์


Code:
Format                                   : Matroska
Format version                           : Version 4 / Version 2
File size                                : 11.1 GiB
Duration                                 : 1 h 0 min
Overall bit rate                         : 26.2 Mb/s

Video
ID                                       : 1
Format                                   : AVC
Format/Info                              : Advanced Video Codec
Format profile                           : [email protected]
Format settings                          : CABAC / 7 Ref Frames
Format settings, CABAC                   : Yes
Format settings, RefFrames               : 7 frames
Codec ID                                 : V_MPEG4/ISO/AVC
Duration                                 : 1 h 0 min
Bit rate                                 : 25.5 Mb/s
Width                                    : 3 840 pixels
Height                                   : 1 604 pixels
Display aspect ratio                     : 2.40:1
Frame rate mode                          : Constant
Frame rate                               : 23.976 (24000/1001) FPS
Color space                              : YUV
Chroma subsampling                       : 4:2:0
Bit depth                                : 8 bits
Scan type                                : Progressive
Bits/(Pixel*Frame)                       : 0.173
Stream size                              : 10.8 GiB (98%)
Writing library                          : x264 core 157 r2969 d4099dd
Encoding settings                        : cabac=1 / ref=7 / deblock=1:-3:-3 / analyse=0x3:0x133 / me=umh / subme=10 / psy=1 / psy_rd=1.00:0.00 / mixed_ref=1 / me_range=48 / chroma_me=1 / trellis=2 / 8x8dct=1 / cqm=0 / deadzone=21,11 / fast_pskip=0 / chroma_qp_offset=-2 / threads=24 / lookahead_threads=4 / sliced_threads=0 / nr=0 / decimate=0 / interlaced=0 / bluray_compat=0 / constrained_intra=0 / bframes=8 / b_pyramid=2 / b_adapt=2 / b_bias=0 / direct=3 / weightb=1 / open_gop=0 / weightp=2 / keyint=250 / keyint_min=23 / scenecut=40 / intra_refresh=0 / rc=crf / mbtree=0 / crf=18.0 / qcomp=0.60 / qpmin=0 / qpmax=69 / qpstep=4 / ip_ratio=1.30 / pb_ratio=1.20 / aq=3:0.80
Language                                 : English
Default                                  : Yes
Forced                                   : No

Audio
ID                                       : 2
Format                                   : E-AC-3
Format/Info                              : Enhanced AC-3
Commercial name                          : Dolby Digital Plus
Codec ID                                 : A_EAC3
Duration                                 : 1 h 0 min
Bit rate mode                            : Constant
Bit rate                                 : 640 kb/s
Channel(s)                               : 6 channels
Channel layout                           : L R C LFE Ls Rs
Sampling rate                            : 48.0 kHz
Frame rate                               : 31.250 FPS (1536 SPF)
Compression mode                         : Lossy
Stream size                              : 277 MiB (2%)
Language                                 : English 5.1
Service kind                             : Complete Main
Default                                  : Yes
Forced                                   : No

Text #1
ID                                       : 3
Format                                   : UTF-8
Codec ID                                 : S_TEXT/UTF8
Codec ID/Info                            : UTF-8 Plain Text
Duration                                 : 58 min 19 s
Bit rate                                 : 91 b/s
Count of elements                        : 747
Stream size                              : 38.9 KiB (0%)
Language                                 : Arabic
Default                                  : No
Forced                                   : No

Text #2
ID                                       : 4
Format                                   : UTF-8
Codec ID                                 : S_TEXT/UTF8
Codec ID/Info                            : UTF-8 Plain Text
Duration                                 : 57 min 56 s
Bit rate                                 : 49 b/s
Count of elements                        : 740
Stream size                              : 21.2 KiB (0%)
Language                                 : Danish
Default                                  : No
Forced                                   : No

Text #3
ID                                       : 5
Format                                   : UTF-8
Codec ID                                 : S_TEXT/UTF8
Codec ID/Info                            : UTF-8 Plain Text
Duration                                 : 57 min 57 s
Bit rate                                 : 56 b/s
Count of elements                        : 601
Stream size                              : 23.8 KiB (0%)
Language                                 : German
Default                                  : No
Forced                                   : No

Text #4
ID                                       : 6
Format                                   : UTF-8
Codec ID                                 : S_TEXT/UTF8
Codec ID/Info                            : UTF-8 Plain Text
Duration                                 : 58 min 20 s
Bit rate                                 : 63 b/s
Count of elements                        : 1016
Stream size                              : 27.0 KiB (0%)
Title                                    : English SDH
Language                                 : English
Default                                  : No
Forced                                   : No

Text #5
ID                                       : 7
Format                                   : UTF-8
Codec ID                                 : S_TEXT/UTF8
Codec ID/Info                            : UTF-8 Plain Text
Duration                                 : 58 min 19 s
Bit rate                                 : 58 b/s
Count of elements                        : 742
Stream size                              : 25.0 KiB (0%)
Title                                    : Latinoam้        rica
Language                                 : Spanish
Default                                  : No
Forced                                   : No

Text #6
ID                                       : 8
Format                                   : UTF-8
Codec ID                                 : S_TEXT/UTF8
Codec ID/Info                            : UTF-8 Plain Text
Duration                                 : 57 min 56 s
Bit rate                                 : 57 b/s
Count of elements                        : 742
Stream size                              : 24.3 KiB (0%)
Title                                    : Espa๑        a
Language                                 : Spanish
Default                                  : No
Forced                                   : No

Text #7
ID                                       : 9
Format                                   : UTF-8
Codec ID                                 : S_TEXT/UTF8
Codec ID/Info                            : UTF-8 Plain Text
Duration                                 : 57 min 56 s
Bit rate                                 : 51 b/s
Count of elements                        : 743
Stream size                              : 22.0 KiB (0%)
Language                                 : Finnish
Default                                  : No
Forced                                   : No

Text #8
ID                                       : 10
Format                                   : UTF-8
Codec ID                                 : S_TEXT/UTF8
Codec ID/Info                            : UTF-8 Plain Text
Duration                                 : 57 min 56 s
Bit rate                                 : 57 b/s
Count of elements                        : 741
Stream size                              : 24.5 KiB (0%)
Language                                 : French
Default                                  : No
Forced                                   : No

Text #9
ID                                       : 11
Format                                   : UTF-8
Codec ID                                 : S_TEXT/UTF8
Codec ID/Info                            : UTF-8 Plain Text
Duration                                 : 58 min 19 s
Bit rate                                 : 89 b/s
Count of elements                        : 747
Stream size                              : 38.0 KiB (0%)
Language                                 : Hebrew
Default                                  : No
Forced                                   : No

Text #10
ID                                       : 12
Format                                   : UTF-8
Codec ID                                 : S_TEXT/UTF8
Codec ID/Info                            : UTF-8 Plain Text
Duration                                 : 58 min 19 s
Bit rate                                 : 152 b/s
Count of elements                        : 747
Stream size                              : 65.2 KiB (0%)
Language                                 : Hindi
Default                                  : No
Forced                                   : No

Text #11
ID                                       : 13
Format                                   : UTF-8
Codec ID                                 : S_TEXT/UTF8
Codec ID/Info                            : UTF-8 Plain Text
Duration                                 : 57 min 56 s
Bit rate                                 : 49 b/s
Count of elements                        : 741
Stream size                              : 21.0 KiB (0%)
Language                                 : Indonesian
Default                                  : No
Forced                                   : No

Text #12
ID                                       : 14
Format                                   : UTF-8
Codec ID                                 : S_TEXT/UTF8
Codec ID/Info                            : UTF-8 Plain Text
Duration                                 : 57 min 56 s
Bit rate                                 : 61 b/s
Count of elements                        : 741
Stream size                              : 25.9 KiB (0%)
Language                                 : Italian
Default                                  : No
Forced                                   : No

Text #13
ID                                       : 15
Format                                   : UTF-8
Codec ID                                 : S_TEXT/UTF8
Codec ID/Info                            : UTF-8 Plain Text
Duration                                 : 58 min 19 s
Bit rate                                 : 62 b/s
Count of elements                        : 747
Stream size                              : 26.7 KiB (0%)
Language                                 : Korean
Default                                  : No
Forced                                   : No

Text #14
ID                                       : 16
Format                                   : UTF-8
Codec ID                                 : S_TEXT/UTF8
Codec ID/Info                            : UTF-8 Plain Text
Duration                                 : 58 min 19 s
Bit rate                                 : 56 b/s
Count of elements                        : 745
Stream size                              : 24.0 KiB (0%)
Language                                 : Norwegian Bokmal
Default                                  : No
Forced                                   : No

Text #15
ID                                       : 17
Format                                   : UTF-8
Codec ID                                 : S_TEXT/UTF8
Codec ID/Info                            : UTF-8 Plain Text
Duration                                 : 57 min 56 s
Bit rate                                 : 53 b/s
Count of elements                        : 742
Stream size                              : 22.8 KiB (0%)
Language                                 : Dutch
Default                                  : No
Forced                                   : No

Text #16
ID                                       : 18
Format                                   : UTF-8
Codec ID                                 : S_TEXT/UTF8
Codec ID/Info                            : UTF-8 Plain Text
Duration                                 : 57 min 56 s
Bit rate                                 : 53 b/s
Count of elements                        : 744
Stream size                              : 22.5 KiB (0%)
Language                                 : Polish
Default                                  : No
Forced                                   : No

Text #17
ID                                       : 19
Format                                   : UTF-8
Codec ID                                 : S_TEXT/UTF8
Codec ID/Info                            : UTF-8 Plain Text
Duration                                 : 57 min 56 s
Bit rate                                 : 54 b/s
Count of elements                        : 741
Stream size                              : 23.2 KiB (0%)
Language                                 : Portuguese
Default                                  : No
Forced                                   : No

Text #18
ID                                       : 20
Format                                   : UTF-8
Codec ID                                 : S_TEXT/UTF8
Codec ID/Info                            : UTF-8 Plain Text
Duration                                 : 58 min 19 s
Bit rate                                 : 88 b/s
Count of elements                        : 747
Stream size                              : 37.9 KiB (0%)
Language                                 : Russian
Default                                  : No
Forced                                   : No

Text #19
ID                                       : 21
Format                                   : UTF-8
Codec ID                                 : S_TEXT/UTF8
Codec ID/Info                            : UTF-8 Plain Text
Duration                                 : 57 min 56 s
Bit rate                                 : 58 b/s
Count of elements                        : 740
Stream size                              : 24.8 KiB (0%)
Language                                 : Swedish
Default                                  : No
Forced                                   : No

Text #20
ID                                       : 22
Format                                   : UTF-8
Codec ID                                 : S_TEXT/UTF8
Codec ID/Info                            : UTF-8 Plain Text
Duration                                 : 58 min 19 s
Bit rate                                 : 166 b/s
Count of elements                        : 747
Stream size                              : 71.0 KiB (0%)
Language                                 : Tamil
Default                                  : No
Forced                                   : No

Text #21
ID                                       : 23
Format                                   : UTF-8
Codec ID                                 : S_TEXT/UTF8
Codec ID/Info                            : UTF-8 Plain Text
Duration                                 : 58 min 19 s
Bit rate                                 : 143 b/s
Count of elements                        : 747
Stream size                              : 61.5 KiB (0%)
Language                                 : Telugu
Default                                  : No
Forced                                   : No

Text #22
ID                                       : 24
Format                                   : UTF-8
Codec ID                                 : S_TEXT/UTF8
Codec ID/Info                            : UTF-8 Plain Text
Duration                                 : 58 min 19 s
Bit rate                                 : 149 b/s
Count of elements                        : 747
Stream size                              : 63.8 KiB (0%)
Language                                 : Thai
Default                                  : No
Forced                                   : No

Text #23
ID                                       : 25
Format                                   : UTF-8
Codec ID                                 : S_TEXT/UTF8
Codec ID/Info                            : UTF-8 Plain Text
Duration                                 : 58 min 19 s
Bit rate                                 : 52 b/s
Count of elements                        : 745
Stream size                              : 22.3 KiB (0%)
Language                                 : Turkish
Default                                  : No
Forced                                   : No

Text #24
ID                                       : 26
Format                                   : UTF-8
Codec ID                                 : S_TEXT/UTF8
Codec ID/Info                            : UTF-8 Plain Text
Duration                                 : 58 min 19 s
Bit rate                                 : 54 b/s
Count of elements                        : 747
Stream size                              : 23.2 KiB (0%)
Title                                    : 中        文        (        简        体        )        
Language                                 : Chinese
Default                                  : No
Forced                                   : No

Text #25
ID                                       : 27
Format                                   : UTF-8
Codec ID                                 : S_TEXT/UTF8
Codec ID/Info                            : UTF-8 Plain Text
Duration                                 : 58 min 19 s
Bit rate                                 : 48 b/s
Count of elements                        : 747
Stream size                              : 20.5 KiB (0%)
Title                                    : 中        文        (        繁        體        )        
Language                                 : Chinese
Default                                  : No
Forced                                   : No

Menu
00:00:00.000                             : en:Amazon Original
00:00:05.000                             : en:Title Sequence
00:00:18.000                             : en:Opening Credits
00:00:29.000                             : en:The history of The Great War
00:01:49.000                             : en:Fleeing from Tirnanoc
00:08:00.000                             : en:Philo works on a case in The Burgue
00:14:29.000                             : en:The wreckage from the ship
00:15:22.000                             : en:Political leanings in The Burgue
00:19:02.000                             : en:Philo chases down a lead
00:20:45.000                             : en:Vignette's fate after the shipwreck
00:26:00.000                             : en:Philo attends a protest meeting
00:28:46.000                             : en:Philo experiences favoritism
00:31:48.000                             : en:Running errands leads to an old friend
00:37:55.000                             : en:Philo gets reprimanded
00:40:26.000                             : en:Vignette vows revenge
00:41:05.000                             : en:Greeting the new neighbors
00:42:51.000                             : en:Jonah has a little fun
00:45:22.000                             : en:Looking for a fish in the sea
00:50:34.000                             : en:Vignette comes for Philo
00:57:04.000                             : en:The darkness is coming...
 00:58:33.000                             : en:End Credits



















Download: cornfile
Carnival.Row.S01E01.2160p.AMZN.WEBRip.DDP5.1.x264. mkv - 11.1 GB
Carnival.Row.S01E02.2160p.AMZN.WEBRip.DDP5.1.x264. mkv - 9.7 GB
Carnival.Row.S01E03.2160p.AMZN.WEBRip.DDP5.1.x264. mkv - 12.0 GB
Carnival.Row.S01E04.2160p.AMZN.WEBRip.DDP5.1.x264. mkv - 10.8 GB
Carnival.Row.S01E05.2160p.AMZN.WEBRip.DDP5.1.x264. mkv - 10.6 GB
Carnival.Row.S01E06.2160p.AMZN.WEBRip.DDP5.1.x264. mkv - 9.6 GB
Carnival.Row.S01E07.2160p.AMZN.WEBRip.DDP5.1.x264. mkv - 8.4 GB
Carnival.Row.S01E08.2160p.AMZN.WEBRip.DDP5.1.x264. mkv - 12.5 GB
Download: mekafile
1 http://www.mekafile.com/dl.php?f=W61fe7bYO9DX
2 http://www.mekafile.com/dl.php?f=JN05a6bYOelm
3 http://www.mekafile.com/dl.php?f=7I7dfabYO9U6
4 http://www.mekafile.com/dl.php?f=Fj6f71bYOduY
5 http://www.mekafile.com/dl.php?f=ATf07abYOd8Q
6 http://www.mekafile.com/dl.php?f=JJb348bYOc95
7 http://www.mekafile.com/dl.php?f=UpcdabbYOanN
8 http://www.mekafile.com/dl.php?f=7Vca45bYOevp