+ Reply to Thread
Results 1 to 2 of 2
  1. #1
    Administrators Duckload.us's Avatar
    Join Date
    Dec 2010
    Posts
    106,060
    Thanks
    9
    Thanked 109,985 Times in 51,401 Posts

    Question []-[** MINI HD 1080P**] Barcelona A Love Untold (2016) : Ź ѡº͡ [1080p.NF.WEBRip.DDP2.0.x264] [§ԻԹ Master] [ Master From Netflix + Ѻ PGS Ѵ]




    Barcelona: A Love Untold



    Rating: 6.9/10 Year: 2016 Genres: Drama / Romance Runtime: 132 min Language: Filipino / Tagalog / Spanish Director: Olivia M. Lamasan Writers: Carmi Raymundo Cast: Kathryn Bernardo / Daniel Padilla / Aiko MelendezPlot:

    Ely and Mia (Daniel Padilla and Kathryn Bernardo) find each other on their individual journeys in finding redemption. After the unfortunate passing of Ely's girlfriend, Ely moves to Barcelona, Spain to fulfill his wishes when he meets a girl who reminds him of her. He tries to ignore the thought of her, but fate would always bring them together. Both struggle at first: but as they get know each other, things begin to feel lighter. Soon, Mia finds herself falling for Ely, who is not yet done loving someone else. With a strong voice of today's youth, this romantic-drama movie shows two people who are faced with the truth about themselves and about the past so that they can have a future together.



    Сѧ¹㹻໹ ѡ¹ʶһѵ ѧȡ
    龺Ѻǵҧҵաѧ˹ըҡԵͺ Ƿآ...!!!

    Format : Matroska
    Format version : Version 4
    File size : 7.08 GiB
    Duration : 2 h 11 min
    Overall bit rate : 7 696 kb/s
    Movie name : [email protected]730

    Video
    ID : 1
    Format : AVC
    Format/Info : Advanced Video Codec
    Format profile : [email protected]
    Format settings : CABAC / 3 Ref Frames
    Format settings, CABAC : Yes
    Format settings, RefFrames : 3 frames
    Codec ID : V_MPEG4/ISO/AVC
    Duration : 2 h 11 min
    Bit rate mode : Variable
    Bit rate : 7 500 kb/s
    Maximum bit rate : 11.2 Mb/s
    Width : 1 920 pixels
    Height : 1 080 pixels
    Display aspect ratio : 16:9
    Frame rate mode : Constant
    Frame rate : 23.976 (24000/1001) FPS
    Color space : YUV
    Chroma subsampling : 4:2:0
    Bit depth : 8 bits
    Scan type : Progressive
    Bits/(Pixel*Frame) : 0.151
    Stream size : 6.89 GiB (97%)
    Title : [email protected]730
    Writing library : x264 core 148 r2715 7e75228
    Encoding settings : cabac=1 / ref=3 / deblock=1:0:0 / analyse=0x1:0x111 / me=umh / subme=10 / psy=1 / psy_rd=1.00:0.00 / mixed_ref=1 / me_range=24 / chroma_me=1 / trellis=2 / 8x8dct=0 / cqm=0 / deadzone=21,11 / fast_pskip=1 / chroma_qp_offset=-2 / threads=8 / lookahead_threads=1 / sliced_threads=0 / nr=0 / decimate=1 / interlaced=0 / bluray_compat=0 / stitchable=1 / constrained_intra=0 / bframes=2 / b_pyramid=0 / b_adapt=2 / b_bias=0 / direct=3 / weightb=1 / open_gop=0 / weightp=2 / keyint=48 / keyint_min=25 / scenecut=0 / intra_refresh=0 / rc_lookahead=48 / rc=2pass / mbtree=1 / bitrate=7500 / ratetol=1.0 / qcomp=0.50 / qpmin=6 / qpmax=51 / qpstep=4 / cplxblur=20.0 / qblur=0.5 / vbv_maxrate=11250 / vbv_bufsize=15000 / nal_hrd=vbr / filler=0 / ip_ratio=1.40 / aq=1:1.00
    Default : Yes
    Forced : No

    Audio
    ID : 2
    Format : E-AC-3
    Format/Info : Enhanced AC-3
    Commercial name : Dolby Digital Plus
    Codec ID : A_EAC3
    Duration : 2 h 11 min
    Bit rate mode : Constant
    Bit rate : 128 kb/s
    Channel(s) : 2 channels
    Channel layout : L R
    Sampling rate : 48.0 kHz
    Frame rate : 31.250 FPS (1536 SPF)
    Compression mode : Lossy
    Stream size : 121 MiB (2%)
    Title : Philippines Master
    Language : fil
    Service kind : Complete Main
    Default : Yes
    Forced : No

    Text #1
    ID : 3
    Format : UTF-8
    Codec ID : S_TEXT/UTF8
    Codec ID/Info : UTF-8 Plain Text
    Duration : 2 h 7 min
    Bit rate : 39 b/s
    Count of elements : 1157
    Stream size : 36.6 KiB (0%)
    Title : English
    Language : English
    Default : Yes
    Forced : No

    Text #2
    ID : 4
    Format : VobSub
    Muxing mode : zlib
    Codec ID : S_VOBSUB
    Codec ID/Info : Picture based subtitle format used on DVDs
    Duration : 2 h 8 min
    Bit rate : 1 779 b/s
    Count of elements : 1481
    Stream size : 1.63 MiB (0%)
    Title : Thai 480P
    Language : Thai
    Default : No
    Forced : No

    Text #3
    ID : 5
    Format : VobSub
    Muxing mode : zlib
    Codec ID : S_VOBSUB
    Codec ID/Info : Picture based subtitle format used on DVDs
    Duration : 2 h 8 min
    Bit rate : 3 147 b/s
    Count of elements : 1481
    Stream size : 2.89 MiB (0%)
    Title : Thai 720P
    Language : Thai
    Default : No
    Forced : No

    Text #4
    ID : 6
    Format : VobSub
    Muxing mode : zlib
    Codec ID : S_VOBSUB
    Codec ID/Info : Picture based subtitle format used on DVDs
    Duration : 2 h 8 min
    Bit rate : 5 128 b/s
    Count of elements : 1481
    Stream size : 4.71 MiB (0%)
    Title : Thai 1080P
    Language : Thai
    Default : No
    Forced : No

    Text #5
    ID : 7
    Format : VobSub
    Muxing mode : zlib
    Codec ID : S_VOBSUB
    Codec ID/Info : Picture based subtitle format used on DVDs
    Duration : 2 h 8 min
    Bit rate : 6 062 b/s
    Count of elements : 1481
    Stream size : 5.56 MiB (0%)
    Title : Thai 1080P BIG
    Language : Thai
    Default : No
    Forced : No

    Text #6
    ID : 8
    Format : VobSub
    Muxing mode : zlib
    Codec ID : S_VOBSUB
    Codec ID/Info : Picture based subtitle format used on DVDs
    Duration : 2 h 8 min
    Bit rate : 5 137 b/s
    Count of elements : 1481
    Stream size : 4.72 MiB (0%)
    Title : Thai 1080P Yellow
    Language : Thai
    Default : No
    Forced : No

    Text #7
    ID : 9
    Format : PGS
    Muxing mode : zlib
    Codec ID : S_HDMV/PGS
    Codec ID/Info : Picture based subtitle format used on BDs/HD-DVDs
    Duration : 2 h 8 min
    Bit rate : 17.6 kb/s
    Count of elements : 2966
    Stream size : 16.2 MiB (0%)
    Title : Thai PGS
    Language : Thai
    Default : No
    Forced : No

    Text #8
    ID : 10
    Format : PGS
    Muxing mode : zlib
    Codec ID : S_HDMV/PGS
    Codec ID/Info : Picture based subtitle format used on BDs/HD-DVDs
    Duration : 2 h 8 min
    Bit rate : 20.6 kb/s
    Count of elements : 2966
    Stream size : 18.9 MiB (0%)
    Title : Thai PGS BIG
    Language : Thai
    Default : No
    Forced : No

    Text #9
    ID : 11
    Format : PGS
    Muxing mode : zlib
    Codec ID : S_HDMV/PGS
    Codec ID/Info : Picture based subtitle format used on BDs/HD-DVDs
    Duration : 2 h 8 min
    Bit rate : 17.7 kb/s
    Count of elements : 2966
    Stream size : 16.3 MiB (0%)
    Title : Thai PGS Yellow
    Language : Thai
    Default : No
    Forced : No






















    Download: cornfile
    http://cornfile.com/38hsb5dd17qr
    Download: mekafile
    http://www.mekafile.com/dl.php?f=UP1ed2bYRfGJ

  2. #2
    Senior Member
    Join Date
    Jun 2014
    Posts
    866
    Thanks
    0
    Thanked 0 Times in 0 Posts
    ͺسѺ

Thread Information

Users Browsing this Thread

There are currently 1 users browsing this thread. (0 members and 1 guests)

     

Posting Permissions

  • You may not post new threads
  • You may not post replies
  • You may not post attachments
  • You may not edit your posts