+ Reply to Thread
Results 1 to 3 of 3
  1. #1
    Administrators Duckload.us's Avatar
    Join Date
    Dec 2010
    Posts
    106,060
    Thanks
    9
    Thanked 109,985 Times in 51,401 Posts

    Question [](.ҡ)-THE DEAD DONT DIE (2019) Ҵ()Ժ-[BluRay.1080p.X264][Sound:Eng DTS/Thai AC3 5.1:Master.Modifide][SUB:Eng/Tha.PGS,SRT]



    ͧǢͧͧ˹ Դ˵з֡ѭ ս٧͡Ҵͧ Ǩҧ Ѻ ʹ , ͹ ͧ¡ѹѺҫ ЪͧѺʧآա

    Format : Matroska
    Format version : Version 4
    File size : 4.50 GiB
    Duration : 1 h 44 min
    Overall bit rate : 6 162 kb/s
    Movie name : [email protected] CUP
    Cover : Yes
    Attachments : cover.jpg

    Video
    ID : 1
    Format : AVC
    Format/Info : Advanced Video Codec
    Format profile : [email protected]
    Format settings : CABAC / 1 Ref Frames
    Format settings, CABAC : Yes
    Format settings, Reference : 1 frame
    Format settings, GOP : M=1, N=25
    Codec ID : V_MPEG4/ISO/AVC
    Duration : 1 h 44 min
    Bit rate mode : Constant
    Bit rate : 4 500 kb/s
    Width : 1 920 pixels
    Height : 1 080 pixels
    Display aspect ratio : 16:9
    Frame rate mode : Constant
    Frame rate : 29.970 (30000/1001) FPS
    Color space : YUV
    Chroma subsampling : 4:2:0
    Bit depth : 8 bits
    Scan type : Progressive
    Bits/(Pixel*Frame) : 0.072
    Stream size : 3.28 GiB (73%)
    Title : [email protected] CUP
    Language : English
    Default : Yes
    Forced : No

    Audio #1
    ID : 2
    Format : AC-3
    Format/Info : Audio Coding 3
    Commercial name : Dolby Digital
    Codec ID : A_AC3
    Duration : 1 h 44 min
    Bit rate mode : Constant
    Bit rate : 640 kb/s
    Channel(s) : 6 channels
    Channel layout : L R C LFE Ls Rs
    Sampling rate : 44.1 kHz
    Frame rate : 28.711 FPS (1536 SPF)
    Bit depth : 16 bits
    Compression mode : Lossy
    Stream size : 478 MiB (10%)
    Title : 5.1 AC3 Thai 640k 478m
    Language : Thai
    Service kind : Complete Main
    Default : Yes
    Forced : No

    Audio #2
    ID : 3
    Format : DTS
    Format/Info : Digital Theater Systems
    Codec ID : A_DTS
    Duration : 1 h 44 min
    Bit rate mode : Constant
    Bit rate : 661 kb/s
    Channel(s) : 6 channels
    Channel layout : C L R Ls Rs LFE
    Sampling rate : 8 000 Hz
    Frame rate : 7.813 FPS (1024 SPF)
    Bit depth : 16 bits
    Compression mode : Lossy
    Stream size : 494 MiB (11%)
    Title : dts 5.1 Eng 8000-494m
    Language : English
    Default : No
    Forced : No

    Audio #3
    ID : 4
    Format : MPEG Audio
    Format version : Version 1
    Format profile : Layer 3
    Codec ID : A_MPEG/L3
    Codec ID/Hint : MP3
    Duration : 1 h 44 min
    Bit rate mode : Constant
    Bit rate : 320 kb/s
    Channel(s) : 2 channels
    Sampling rate : 44.1 kHz
    Frame rate : 38.281 FPS (1152 SPF)
    Compression mode : Lossy
    Stream size : 239 MiB (5%)
    Title : 2.0 mp3 -320k 239m
    Language : English
    Default : No
    Forced : No

    Text #1
    ID : 5
    Format : PGS
    Muxing mode : zlib
    Codec ID : S_HDMV/PGS
    Codec ID/Info : Picture based subtitle format used on BDs/HD-DVDs
    Duration : 1 h 41 min
    Bit rate : 53.0 kb/s
    Count of elements : 2234
    Stream size : 38.4 MiB (1%)
    Title : Thai-PGS
    Language : Thai
    Default : Yes
    Forced : No

    Text #2
    ID : 6
    Format : UTF-8
    Codec ID : S_TEXT/UTF8
    Codec ID/Info : UTF-8 Plain Text
    Duration : 1 h 41 min
    Bit rate : 44 b/s
    Count of elements : 1271
    Stream size : 33.3 KiB (0%)
    Title : SRT
    Language : English
    Default : No
    Forced : No

    Text #3
    ID : 7
    Format : UTF-8
    Codec ID : S_TEXT/UTF8
    Codec ID/Info : UTF-8 Plain Text
    Duration : 1 h 44 min
    Bit rate : 53 b/s
    Count of elements : 1548
    Stream size : 40.7 KiB (0%)
    Title : SRT-Hearing Impaired=麡ͧҧ§
    Language : English
    Default : No
    Forced : No

    Text #4
    ID : 8
    Format : PGS
    Muxing mode : zlib
    Codec ID : S_HDMV/PGS
    Codec ID/Info : Picture based subtitle format used on BDs/HD-DVDs
    Duration : 1 h 42 min
    Bit rate : 38.8 kb/s
    Count of elements : 2729
    Stream size : 28.4 MiB (1%)
    Title : English-PGS
    Language : English
    Default : No
    Forced : No

    Menu
    00:00:00.000 : :Captulo 01
    00:05:01.510 : :Captulo 02
    00:10:04.437 : :Captulo 03
    00:17:04.148 : :Captulo 04
    00:22:28.848 : :Captulo 05
    00:28:04.725 : :Captulo 06
    00:31:36.269 : :Captulo 07
    00:37:56.649 : :Captulo 08
    00:43:22.642 : :Captulo 09
    00:50:53.050 : :Captulo 10
    00:57:04.504 : :Captulo 11
    01:01:16.965 : :Captulo 12
    01:06:41.581 : :Captulo 13
    01:09:20.823 : :Captulo 14
    01:14:47.775 : :Captulo 15
    01:18:47.681 : :Captulo 16
    01:23:50.442 : :Captulo 17
    01:28:10.202 : :Captulo 18
    01:33:15.799 : :Captulo 19
    01:39:10.987 : :Captulo 20






    4.5 GB
    Download: cornfile
    http://cornfile.com/vyjohfsc5jvm
    Download: mekafile
    http://www.mekafile.com/dl.php?f=hRb0aabYRE28

    10.7 GB
    Download: cornfile
    http://cornfile.com/ex755py64dzf
    Download: mekafile
    http://www.mekafile.com/dl.php?f=bY496cbYREdj

  2. The Following 6 Users Say Thank You to Duckload.us For This Useful Post:

    apichartdear (09-10-2019), bigbang06 (09-10-2019), noi54 (09-11-2019), Tellmon (09-11-2019), thesuperpop (09-11-2019), virusring (09-11-2019)

  3. #2
    Senior Member
    Join Date
    Jun 2014
    Posts
    866
    Thanks
    0
    Thanked 0 Times in 0 Posts
    ͺسѺ

  4. #3
    Senior Member
    Join Date
    Dec 2013
    Posts
    1,761
    Thanks
    3,713
    Thanked 0 Times in 0 Posts
    ͺسФѺ...

Thread Information

Users Browsing this Thread

There are currently 1 users browsing this thread. (0 members and 1 guests)

     

Posting Permissions

  • You may not post new threads
  • You may not post replies
  • You may not post attachments
  • You may not edit your posts