+ Reply to Thread
Results 1 to 1 of 1
  1. #1
    Administrators Duckload.us's Avatar
    Join Date
    Dec 2010
    Posts
    106,204
    Thanks
    9
    Thanked 110,123 Times in 51,450 Posts

    Question [ฝรั่ง]-[*V.1 *] It Chapter Two (2019) : อิท โผล่จากนรก 2 [720p] [* HDCAM.THR2.0.x264 *] [พากย์ไทยโรง 2.0 + เสียงอังกฤษ 2.0]



    ••• 720p.HDCAM.THR2.0.x264 •••
    พากย์ไทยโรง 2.0 + เสียงอังกฤษ 2.0

    It Chapter Two เพราะตัวตลกปีศาจเพนนี่ไวซ์จะกลับมาเยือนเมืองเดอร์ร ี่ รัฐเมนในทุก ๆ 27 ปี It: Chapter Two - อิท โผล่จากนรก 2 จึงพาเหล่าตัวละครที่แยกย้ายจากกันไปนานกลับมารวมตัว กันอีกครั้งในวัยผู้ใหญ่ ซึ่งนับเป็นเวลากว่า 3 ศตวรรษหลังจากเหตุการณ์สยองเกิดขึ้นกับพวกเขาตอนเด็ก ในภาพยนตร์ภาคแรก สานต่อความสำเร็จจาก IT เมื่อปี 2017 โดยฝีมือกำกับของ แอนดี้ มุสชีเอตติ ผู้พาภาพยนตร์กวาดรายได้ทั่วโลกสูงถึง 700 ล้านเหรียญสหรัฐ ในภาคต่อนี้ได้ตัวนักแสดงมากฝีมือมากมายมารับบทเป็น กลุ่มขี้แพ้ ในวัยผู้ใหญ่ นำโดยผู้เข้าชิงรางวัลออสการ์ เจสสิก้า แชสเทน (ภาพยนตร์ Zero Dark Thirty, Mama) รับบท เบเวอร์ลี่, เจมส์ แม็คอะวอย (ภาพยนตร์ Split, Glass) รับบท บิล, บิล เฮเดอร์ (ซีรีส์โทรทัศน์ Barry, The Skeleton Twins) รับบท ริชชี่, ไอเซห์ มุสตาฟา (ภาพยนตร์โทรทัศน์ Shadowhunters: The Mortal Instruments) รับบท ไมค์, เจย์ ไรอัน (ภาพยนตร์โทรทัศน์ Mary Kills People) รับบท เบน, เจมส์ แรนซัน (ซีรีส์ The Wire) รับบท เอ็ดดี้ และแอนดี้ บีน (ภาพยนตร์ Allegiant, Power) รับบท สแตนลีย์ ร่วมด้วยทีมนักแสดงเด็กหน้าเก่าผู้กลับมารับบทสมาชิก กลุ่มขี้แพ้ นำโดย โซเฟีย ลิลลิส รับบท เบเวอร์ลี่, แจเดน มาร์เทล รับบท บิล, ฟินน์ วูล์ฟฮาร์ด รับบท ริชชี่, โชเซน จาคอบส์ รับบท ไมค์, เจเรมี เรย์ เทย์เลอร์ รับบท เบน, แจ็ค ดีแลน เกรเซอร์ รับบท เอ็ดดี้, ไวแอตต์ โอเลฟฟ์ รับบท สแตนลีย์ รวมถึงนักแสดงตัวหลักที่ขาดไม่ได้เลยก็คือ บิล ซาร์สการ์ด ที่กลับมาทวงตำแหน่งตัวตลกปีศาจในตำนาน เพนนี่ไวซ์!

    Format : Matroska
    Format version : Version 4
    File size : 3.93 GiB
    Duration : 2 h 39 min
    Overall bit rate : 3 523 kb/s

    Video
    ID : 1
    Format : AVC
    Format/Info : Advanced Video Codec
    Format profile : [email protected]
    Format settings : CABAC / 6 Ref Frames
    Format settings, CABAC : Yes
    Format settings, Reference : 6 frames
    Codec ID : V_MPEG4/ISO/AVC
    Duration : 2 h 39 min
    Bit rate mode : Variable
    Bit rate : 3 000 kb/s
    Maximum bit rate : 18.4 Mb/s
    Width : 1 280 pixels
    Height : 536 pixels
    Display aspect ratio : 2.40:1
    Frame rate mode : Constant
    Frame rate : 29.970 (29970/1000) FPS
    Original frame rate : 30.000 FPS
    Standard : Component
    Color space : YUV
    Chroma subsampling : 4:2:0
    Bit depth : 8 bits
    Scan type : Progressive
    Bits/(Pixel*Frame) : 0.146
    Stream size : 3.35 GiB (85%)
    Title : D:โมใหม่{ZoomV.1}_It.Chapter.Two.2019.720p.HDCAM.T HR2.0.x264_By [email protected]
    Writing library : x264 core 155
    Encoding settings : cabac=1 / ref=6 / deblock=1:0:0 / analyse=0x3:0x113 / me=hex / subme=7 / psy=1 / psy_rd=1.00:0.00 / mixed_ref=1 / me_range=16 / chroma_me=1 / trellis=1 / 8x8dct=1 / cqm=1 / deadzone=21,11 / fast_pskip=1 / chroma_qp_offset=-2 / threads=17 / lookahead_threads=2 / sliced_threads=0 / slices=1 / nr=0 / decimate=1 / interlaced=0 / minigop=0 / stitchable=1 / constrained_intra=0 / bframes=3 / b_pyramid=0 / b_adapt=1 / b_bias=0 / direct=1 / weightb=1 / open_gop=1 / weightp=2 / keyint=250 / keyint_min=25 / scenecut=40 / intra_refresh=0 / rc_lookahead=40 / rc=abr / mbtree=1 / bitrate=3000 / ratetol=1.0 / qcomp=0.60 / qpmin=3 / qpmax=69 / qpstep=4 / vbv_maxrate=18400 / vbv_bufsize=18400 / nal_hrd=vbr / filler=0 / ip_ratio=1.40 / aq=1:1.00
    Language : English
    Default : Yes
    Forced : No
    Color range : Limited
    Color primaries : BT.709
    Transfer characteristics : BT.709
    Matrix coefficients : BT.709

    Audio #1
    ID : 2
    Format : AC-3
    Format/Info : Audio Coding 3
    Commercial name : Dolby Digital
    Codec ID : A_AC3
    Duration : 2 h 39 min
    Bit rate mode : Constant
    Bit rate : 384 kb/s
    Channel(s) : 2 channels
    Channel layout : L R
    Sampling rate : 48.0 kHz
    Frame rate : 31.250 FPS (1536 SPF)
    Bit depth : 16 bits
    Compression mode : Lossy
    Stream size : 438 MiB (11%)
    Title : ThaiRong 2.0 @ 384 kb/s By Mr.Captain
    Language : Thai
    Service kind : Complete Main
    Default : Yes
    Forced : No

    Audio #2
    ID : 3
    Format : AAC LC
    Format/Info : Advanced Audio Codec Low Complexity
    Codec ID : A_AAC-2
    Duration : 2 h 39 min
    Bit rate : 128 kb/s
    Channel(s) : 2 channels
    Channel layout : L R
    Sampling rate : 48.0 kHz
    Frame rate : 46.875 FPS (1024 SPF)
    Compression mode : Lossy
    Stream size : 147 MiB (4%)
    Title : English 2.0 @ 48.0 kHz
    Writing library : Lavc58.35.100 aac
    Language : English
    Default : No
    Forced : No










    Download: cornfile
    http://cornfile.com/33rxjyuwb3gq
    Download: mekafile
    http://www.mekafile.com/dl.php?f=SJea73bYTrUs

  2. The Following User Says Thank You to Duckload.us For This Useful Post:

    noi54 (09-11-2019)

+ Reply to Thread

Thread Information

Users Browsing this Thread

There are currently 1 users browsing this thread. (0 members and 1 guests)

     

Posting Permissions

  • You may not post new threads
  • You may not post replies
  • You may not post attachments
  • You may not edit your posts