Format : Matroska
Format version : Version 4 / Version 2
File size : 2.24 GiB
Duration : 43 min 11 s
Overall bit rate : 7 431 kb/s
Movie name : [email protected]
Encoded date : UTC 2019-09-05 09:46:10
Writing application : mkvmerge v24.0.0 ('Beyond The Pale') 64-bit
Writing library : libebml v1.3.6 + libmatroska v1.4.9

Video
ID : 1
Format : AVC
Format/Info : Advanced Video Codec
Format profile : [email protected]
Format settings, CABAC : Yes
Format settings, RefFrames : 3 frames
Codec ID : V_MPEG4/ISO/AVC
Duration : 43 min 11 s
Bit rate : 6 772 kb/s
Width : 1 920 pixels
Height : 1 080 pixels
Display aspect ratio : 16:9
Frame rate mode : Constant
Frame rate : 23.976 (24000/1001) FPS
Color space : YUV
Chroma subsampling : 4:2:0
Bit depth : 8 bits
Scan type : Progressive
Bits/(Pixel*Frame) : 0.136
Stream size : 2.04 GiB (91%)
Default : Yes
Forced : No
Comment : NETFLIX BY ARGON

Audio
ID : 2
Format : E-AC-3
Format/Info : Enhanced Audio Coding 3
Format settings, Endianness : Big
Codec ID : A_EAC3
Duration : 43 min 11 s
Bit rate mode : Constant
Bit rate : 640 kb/s
Channel(s) : 6 channels
Channel positions : Front: L C R, Side: L R, LFE
Sampling rate : 48.0 kHz
Frame rate : 187.500 FPS (256 SPF)
Compression mode : Lossy
Stream size : 198 MiB (9%)
Title : EN AC3
Language : English
Service kind : Complete Main
Default : Yes
Forced : No

Text #1
ID : 3
Format : PGS
Muxing mode : zlib
Codec ID : S_HDMV/PGS
Codec ID/Info : Picture based subtitle format used on BDs/HD-DVDs
Duration : 43 min 1 s
Bit rate : 16.6 kb/s
Count of elements : 926
Stream size : 5.10 MiB (0%)
Title : TH_PGS
Language : Thai
Default : Yes
Forced : No

Text #2
ID : 4
Format : VobSub
Muxing mode : zlib
Codec ID : S_VOBSUB
Codec ID/Info : Picture based subtitle format used on DVDs
Duration : 43 min 1 s
Bit rate : 7 671 b/s
Count of elements : 462
Stream size : 2.36 MiB (0%)
Title : TH_VOBSUB
Language : Thai
Default : No
Forced : No

Text #3
ID : 5
Format : VobSub
Muxing mode : zlib
Codec ID : S_VOBSUB
Codec ID/Info : Picture based subtitle format used on DVDs
Duration : 43 min 1 s
Bit rate : 7 668 b/s
Count of elements : 462
Stream size : 2.36 MiB (0%)
Title : TH_VOBSUB_YELLOW
Language : Thai
Default : No
Forced : No

1
http://www.filecondo.com/dl.php?f=G9463b1I7Syk
2
http://www.filecondo.com/dl.php?f=H6a8211I7Szk
3
http://www.filecondo.com/dl.php?f=j0350a1I7SAg
4
http://www.filecondo.com/dl.php?f=E019571I7SBj
5
http://www.filecondo.com/dl.php?f=5b77601I7SCf
6
http://www.filecondo.com/dl.php?f=Zf10831I7SDa
7
http://www.filecondo.com/dl.php?f=v021691I7SE1
8
http://www.filecondo.com/dl.php?f=U7e8fa1I7SF8
9
http://www.filecondo.com/dl.php?f=t0bdb71I7SFX
10
http://www.filecondo.com/dl.php?f=L494941I7SH4
11
http://www.filecondo.com/dl.php?f=P843a21I7SI1
12
http://www.filecondo.com/dl.php?f=C333b41I7SIZ
13
http://www.filecondo.com/dl.php?f=Dae4251I7SJW
14
http://www.filecondo.com/dl.php?f=Tf20ab1I7SKW
15
http://www.filecondo.com/dl.php?f=14fc031I7SLS
16
http://www.filecondo.com/dl.php?f=m94a3f1I7SMR